Witamy Guest (Zaloguj) Strona Główna Kontakt Aktywacja/Wsparcie Regulamin
User: Hasło:
Stwórz konto Odzyskiwanie hasła

Kategorie
Filmy :
 » DVD-R1940  
 » VCD/SVCD76  
 » BluRay/x2645420  
 » DivX/XviD65274  
 » Filmy ENG526  
 » RMVB6148  
 » HD1  
 » 3D16  
Seriale :
 » Seriale Polskie2795  
 » Seriale Zagraniczne17598  
Dla Dzieci :
 » Bajki Pl/Eng1208  
Anime :
 » Anime Pl139  
 » Anime1265  
Muzyka :
 » Muzyka Polska/Zagraniczna17632  
 » Soundtracki299  
 » Teledyski/Koncerty1998  
Gry :
 » Gry PC11624  
 » Gry PS2/PS3/PSP1158  
 » Gry Xbox1156  
 » Gry - Inne Konsole456  
GSM/PDA :
 » Tapety GSM/PDA103  
 » Programy GSM/PDA394  
 » Filmy GSM/PDA122  
 » Dzwonki GSM/PDA110  
 » Gry GSM/PDA239  
Ksiazki/Czasopisma :
 » E-Booki9564  
 » Audio-Booki838  
 » Czasopisma1060  
 » Komiksy844  
Programy :
 » Windows11327  
 » Linux475  
 » Macintosh97  
Inne :
 » Tapety2394  
 » Śmieszne80  
 » Sport1185  
 » Pozostale246  
Erotyka :
 » Czasopisma125  
 » Zdjęcia 1532  
 » Filmy54111  
 » Gry 68  
 » Hentai+1853  

UEFA Euro*2016*Quarter Final France vs Iceland 1080p HDTV x264 VERUM[rartv]

Kategoria: Sport
Wystawil: 
Data: 07/07/2016
Rozmiar: 8.61 GB
Seedow: 0
Leecherow: 0

Uaktualnij


Pobierz Torrent



UEFA.Euro.2016.Quarter.Final.France.vs.Iceland.1080p.HDTV.x264-VERUM

Rls Date         2016.07.04  Air Date        2016.07.04
Genre            Sports      Source          HDTV

Resolution       1920 x 1080 Video Runtime   1h 43mn
Audio Codec      AC3         Video Crf       22.0
Audio Channels   2           Video FPS       50.000
Audio Bit Rate   192 Kbps    Video Bit Rate  11.5 Mbps
Audio Language   English     File  Size      8.61 GiB

[+] Show MediaInfo
Video
ID                                       : 1
Format                                   : AVC
Format/Info                              : Advanced Video Codec
Format profile                           : High@L4.1
Format settings, CABAC                   : Yes
Format settings, ReFrames                : 4 frames
Codec ID                                 : V_MPEG4/ISO/AVC
Duration                                 : 1h 43mn
Bit rate                                 : 11.5 Mbps
Width                                    : 1 920 pixels
Height                                   : 1 080 pixels
Display aspect ratio                     : 16:9
Frame rate mode                          : Constant
Frame rate                               : 50.000 fps
Color space                              : YUV
Chroma subsampling                       : 4:2:0
Bit depth                                : 8 bits
Scan type                                : Progressive
Bits/(Pixel*Frame)                       : 0.111
Stream size                              : 8.30 GiB (96%)
Writing library                          : x264 core 148 r2705 3f5ed56
Encoding settings                        : cabac=1 / ref=4 / deblock=1:0:0 / analyse=0x3:0x113 / me=umh / subme=8 / psy=1 / psy_rd=1.00:0.00 / mixed_ref=1 / me_range=16 / chroma_me=1 / trellis=1 / 8x8dct=1 / cqm=0 / deadzone=21,11 / fast_pskip=1 / chroma_qp_offset=-2 / threads=12 / lookahead_threads=2 / sliced_threads=0 / nr=0 / decimate=1 / interlaced=0 / bluray_compat=0 / constrained_intra=0 / bframes=3 / b_pyramid=2 / b_adapt=2 / b_bias=0 / direct=3 / weightb=1 / open_gop=0 / weightp=2 / keyint=250 / keyint_min=25 / scenecut=40 / intra_refresh=0 / rc_lookahead=50 / rc=crf / mbtree=1 / crf=22.0 / qcomp=0.60 / qpmin=0 / qpmax=69 / qpstep=4 / ip_ratio=1.40 / aq=1:1.00
Language                                 : English
Default                                  : Yes
Forced                                   : No
Color range                              : Limited
Matrix coefficients                      : BT.709

Audio
ID                                       : 2
Format                                   : AC-3
Format/Info                              : Audio Coding 3
Mode extension                           : CM (complete main)
Format settings, Endianness              : Big
Codec ID                                 : A_AC3
Duration                                 : 1h 43mn
Bit rate mode                            : Constant
Bit rate                                 : 192 Kbps
Channel(s)                               : 2 channels
Channel positions                        : Front: L R
Sampling rate                            : 48.0 KHz
Frame rate                               : 31.250 fps (1536 spf)
Compression mode                         : Lossy
Stream size                              : 142 MiB (2%)
Language                                 : English
Default                                  : Yes
Forced                                   : No


Szczegoly torrenta
Info Hash
f4a16b28a0fe836fd2cab85a0639d1bdf313aae6
Tracker
http://tracker.trackerfix.com:80/announce [EXTERNAL]
Uaktualnienie
22/02/2017 06:07:51 (Jezeli nie widac seeda kliknij na [uaktualnij] by odswiezyc statystyki).
Pokaz/Ukryj Pliki:
3 pliki
Komentarze


Brak komentarzy...


Wstecz