Witamy Guest (Zaloguj) Strona Główna Kontakt Aktywacja/Wsparcie Regulamin
User: Hasło:
Stwórz konto Odzyskiwanie hasła

Kategorie
Filmy :
 » DVD-R1396  
 » VCD/SVCD4  
 » BluRay/x2645538  
 » DivX/XviD62317  
 » Filmy ENG537  
 » RMVB1784  
 » HD1  
 » 3D16  
Seriale :
 » Seriale Polskie2906  
 » Seriale Zagraniczne16838  
Dla Dzieci :
 » Bajki Pl/Eng493  
Anime :
 » Anime Pl5  
 » Anime104  
Muzyka :
 » Muzyka Polska/Zagraniczna10217  
 » Soundtracki42  
 » Teledyski/Koncerty683  
Gry :
 » Gry PC10643  
 » Gry PS2/PS3/PSP619  
 » Gry Xbox758  
 » Gry - Inne Konsole42  
GSM/PDA :
 » Tapety GSM/PDA6  
 » Programy GSM/PDA293  
 » Filmy GSM/PDA2  
 » Dzwonki GSM/PDA17  
 » Gry GSM/PDA76  
Ksiazki/Czasopisma :
 » E-Booki9062  
 » Audio-Booki588  
 » Czasopisma633  
 » Komiksy782  
Programy :
 » Windows4151  
 » Linux109  
 » Macintosh19  
Inne :
 » Tapety339  
 » Śmieszne16  
 » Sport452  
 » Pozostale102  
Erotyka :
 » Czasopisma28  
 » Zdjęcia 959  
 » Filmy71630  
 » Gry 15  
 » Hentai+180  

UEFA Euro*2016*Quarter Final Wales vs Belgium 1080p HDTV x264 VERUM[rartv]

Kategoria: Sport
Wystawil: 
Data: 07/07/2016
Rozmiar: 6.65 GB
Seedow: 0
Leecherow: 0

Uaktualnij


Pobierz Torrent



UEFA.Euro.2016.Quarter.Final.Wales.vs.Belgium.1080p.HDTV.x264-VERUM

Rls Date         2016.07.02  Air Date        2016.07.02
Genre            Sports      Source          HDTV

Resolution       1920 x 1080 Video Runtime   1h 45mn
Audio Codec      AC3         Video Crf       22.0
Audio Channels   6           Video FPS       50.000
Audio Bit Rate   384 Kbps    Video Bit Rate  8 433 Kbps
Audio Language   English     File  Size      6.65 GiB

[+] Show MediaInfo
Video
ID                                       : 1
Format                                   : AVC
Format/Info                              : Advanced Video Codec
Format profile                           : High@L4.1
Format settings, CABAC                   : Yes
Format settings, ReFrames                : 4 frames
Codec ID                                 : V_MPEG4/ISO/AVC
Duration                                 : 1h 45mn
Bit rate                                 : 8 433 Kbps
Width                                    : 1 920 pixels
Height                                   : 1 080 pixels
Display aspect ratio                     : 16:9
Frame rate mode                          : Constant
Frame rate                               : 50.000 fps
Color space                              : YUV
Chroma subsampling                       : 4:2:0
Bit depth                                : 8 bits
Scan type                                : Progressive
Bits/(Pixel*Frame)                       : 0.081
Stream size                              : 6.23 GiB (94%)
Writing library                          : x264 core 148 r2694 3b70645
Encoding settings                        : cabac=1 / ref=4 / deblock=1:0:0 / analyse=0x3:0x113 / me=umh / subme=8 / psy=1 / psy_rd=1.00:0.00 / mixed_ref=1 / me_range=16 / chroma_me=1 / trellis=1 / 8x8dct=1 / cqm=0 / deadzone=21,11 / fast_pskip=1 / chroma_qp_offset=-2 / threads=12 / lookahead_threads=2 / sliced_threads=0 / nr=0 / decimate=1 / interlaced=0 / bluray_compat=0 / constrained_intra=0 / bframes=3 / b_pyramid=2 / b_adapt=2 / b_bias=0 / direct=3 / weightb=1 / open_gop=0 / weightp=2 / keyint=250 / keyint_min=25 / scenecut=40 / intra_refresh=0 / rc_lookahead=50 / rc=crf / mbtree=1 / crf=22.0 / qcomp=0.60 / qpmin=0 / qpmax=69 / qpstep=4 / ip_ratio=1.40 / aq=1:1.00
Language                                 : English
Default                                  : Yes
Forced                                   : No
Color range                              : Limited
Matrix coefficients                      : BT.709

Audio
ID                                       : 2
Format                                   : AC-3
Format/Info                              : Audio Coding 3
Mode extension                           : CM (complete main)
Format settings, Endianness              : Big
Codec ID                                 : A_AC3
Duration                                 : 1h 45mn
Bit rate mode                            : Constant
Bit rate                                 : 384 Kbps
Channel(s)                               : 6 channels
Channel positions                        : Front: L C R, Side: L R, LFE
Sampling rate                            : 48.0 KHz
Frame rate                               : 31.250 fps (1536 spf)
Compression mode                         : Lossy
Stream size                              : 291 MiB (4%)
Language                                 : English
Default                                  : Yes
Forced                                   : No


Szczegoly torrenta
Info Hash
e4e7cf20977059279e807a7661fbe8cb7acbd081
Tracker
http://tracker.trackerfix.com:80/announce [EXTERNAL]
Uaktualnienie
26/06/2017 10:36:00 (Jezeli nie widac seeda kliknij na [uaktualnij] by odswiezyc statystyki).
Pokaz/Ukryj Pliki:
3 pliki
Komentarze


Brak komentarzy...


Wstecz