Witamy Guest (Zaloguj) Strona Główna Kontakt Aktywacja/Wsparcie Regulamin
User: Hasło:
Stwórz konto Odzyskiwanie hasła

Kategorie
Filmy :
 » DVD-R1940  
 » VCD/SVCD76  
 » BluRay/x2645431  
 » DivX/XviD65310  
 » Filmy ENG526  
 » RMVB6148  
 » HD1  
 » 3D16  
Seriale :
 » Seriale Polskie2798  
 » Seriale Zagraniczne17629  
Dla Dzieci :
 » Bajki Pl/Eng1208  
Anime :
 » Anime Pl139  
 » Anime1265  
Muzyka :
 » Muzyka Polska/Zagraniczna17639  
 » Soundtracki299  
 » Teledyski/Koncerty2003  
Gry :
 » Gry PC11646  
 » Gry PS2/PS3/PSP1158  
 » Gry Xbox1156  
 » Gry - Inne Konsole456  
GSM/PDA :
 » Tapety GSM/PDA103  
 » Programy GSM/PDA396  
 » Filmy GSM/PDA122  
 » Dzwonki GSM/PDA110  
 » Gry GSM/PDA240  
Ksiazki/Czasopisma :
 » E-Booki9564  
 » Audio-Booki869  
 » Czasopisma1060  
 » Komiksy844  
Programy :
 » Windows11328  
 » Linux475  
 » Macintosh97  
Inne :
 » Tapety2394  
 » Śmieszne80  
 » Sport1185  
 » Pozostale246  
Erotyka :
 » Czasopisma125  
 » Zdjęcia 1532  
 » Filmy54702  
 » Gry 68  
 » Hentai+1853  

WWE RAW Pre Show*2016*07 04 720p WEB h264 OVERTiME[rartv]

Kategoria: Sport
Wystawil: 
Data: 07/07/2016
Rozmiar: 965.20 MB
Seedow: 0
Leecherow: 0

Uaktualnij


Pobierz Torrent



OVERTiME.. presents..

WWE.RAW.Pre-Show.2016.07.04.720p.WEB.h264-OVERTiME

RELEASE.DATE________ 05/07/2016
GENRE_______________ Sport
SOURCE______________ WEB(WWE)
RESOLUTION__________ 1280x720
SIZE________________ 21x50m
FRAMERATE___________ 29.970fps
SUBTITLES___________ N/A

NOTES_______________ WWE Raw Pre-Show from WWE Studios in Stamford, CT.
Scott Stanford, Corey Graves, and Booker T cover the
events leading up to WWE Raw.

URL_________________ http://www.tvrage.com/wwe-monday-night-raw-pre-show

** NOW HIRING HDTV/PDTV/WEB/RETAIL CAPPERS FOR INDIE WRESTLING AND MMA **
** THIS INCLUDE CZW/IWA-MS/IWA-DS/PWG/ICW/RPW AND ANY OTHER EVENTS! **

* We currently need..

* TV Cappers in United States/England/Scotland/Ireland/Canada/Australia/EUR.
- Sport Cappers for UFC/WWE/ROH/TNA/MMA/BOXING/EPL/NHL/NBL/NBA/F1/NASCAR etc.
- Can you capture FOX SPORT/NBC SPORT/CBS SPORT/EPSN/SKY SPORT/BT SPORT etc.
* WEB/WEBRip/VOD cappers and untouched feeds. (tv network/foreign websites)
* Do you have a collection of Wrestling, MMA or other Sports on DVD/BluRay?
* Experienced X264 encoder with enough time!
* Experienced programmer who can code custom tools and scripts.

* Find us or send us a Email for a limited time! = electrifying[@]sigaint.org

[+] Show MediaInfo
Video
ID                                       : 1
Format                                   : AVC
Format/Info                              : Advanced Video Codec
Format profile                           : High@L4
Format settings, CABAC                   : Yes
Format settings, ReFrames                : 4 frames
Codec ID                                 : V_MPEG4/ISO/AVC
Duration                                 : 30mn 1s
Bit rate mode                            : Constant
Bit rate                                 : 4 372 Kbps
Width                                    : 1 280 pixels
Height                                   : 720 pixels
Display aspect ratio                     : 16:9
Frame rate mode                          : Constant
Frame rate                               : 29.970 (30000/1001) fps
Color space                              : YUV
Chroma subsampling                       : 4:2:0
Bit depth                                : 8 bits
Scan type                                : Progressive
Bits/(Pixel*Frame)                       : 0.158
Stream size                              : 938 MiB (97%)
Default                                  : Yes
Forced                                   : No

Audio
ID                                       : 2
Format                                   : AAC
Format/Info                              : Advanced Audio Codec
Format profile                           : LC
Codec ID                                 : A_AAC
Duration                                 : 30mn 1s
Bit rate                                 : 125 Kbps
Channel(s)                               : 2 channels
Channel positions                        : Front: L R
Sampling rate                            : 48.0 KHz
Frame rate                               : 46.875 fps (1024 spf)
Compression mode                         : Lossy
Delay relative to video                  : 18ms
Stream size                              : 26.9 MiB (3%)
Language                                 : English
Default                                  : Yes
Forced                                   : No


Szczegoly torrenta
Info Hash
b5ccd802ea63604104b7e1623a3e760f6c870b25
Tracker
http://tracker.trackerfix.com:80/announce [EXTERNAL]
Uaktualnienie
23/02/2017 16:55:56 (Jezeli nie widac seeda kliknij na [uaktualnij] by odswiezyc statystyki).
Pokaz/Ukryj Pliki:
3 pliki
Komentarze


Brak komentarzy...


Wstecz