Witamy Guest (Zaloguj) Strona Główna Kontakt Aktywacja/Wsparcie Regulamin
User: Hasło:
Stwórz konto Odzyskiwanie hasła

Kategorie
Filmy :
 » DVD-R1908  
 » VCD/SVCD76  
 » BluRay/x2645242  
 » DivX/XviD64170  
 » Filmy ENG524  
 » RMVB6127  
 » HD0  
 » 3D16  
Seriale :
 » Seriale Polskie2709  
 » Seriale Zagraniczne16999  
Dla Dzieci :
 » Bajki Pl/Eng1195  
Anime :
 » Anime Pl139  
 » Anime1265  
Muzyka :
 » Muzyka Polska/Zagraniczna17344  
 » Soundtracki299  
 » Teledyski/Koncerty1991  
Gry :
 » Gry PC11318  
 » Gry PS2/PS3/PSP1157  
 » Gry Xbox1154  
 » Gry - Inne Konsole456  
GSM/PDA :
 » Tapety GSM/PDA103  
 » Programy GSM/PDA384  
 » Filmy GSM/PDA122  
 » Dzwonki GSM/PDA110  
 » Gry GSM/PDA238  
Ksiazki/Czasopisma :
 » E-Booki9499  
 » Audio-Booki773  
 » Czasopisma1059  
 » Komiksy834  
Programy :
 » Windows11214  
 » Linux475  
 » Macintosh97  
Inne :
 » Tapety2394  
 » Śmieszne80  
 » Sport1175  
 » Pozostale246  
Erotyka :
 » Czasopisma125  
 » Zdjęcia 1531  
 » Filmy46366  
 » Gry 68  
 » Hentai+1853  

Batman v Superman Dawn of Justice*2016*EXTENDED 1080p BluRay H264 AAC RARBG

Kategoria: Filmy ENG
Wystawil: 
Data: 06/07/2016
Rozmiar: 3.49 GB
Seedow: 118
Leecherow: 28

Uaktualnij


Pobierz Torrent







[+] Show MediaInfo
Video
ID                                       : 1
Format                                   : AVC
Format/Info                              : Advanced Video Codec
Format profile                           : High@L4.1
Format settings, CABAC                   : Yes
Format settings, ReFrames                : 4 frames
Codec ID                                 : avc1
Codec ID/Info                            : Advanced Video Coding
Duration                                 : 3h 2mn
Bit rate                                 : 2 500 Kbps
Width                                    : 1 920 pixels
Height                                   : 800 pixels
Display aspect ratio                     : 2.40:1
Frame rate mode                          : Constant
Frame rate                               : 23.976 (23976/1000) fps
Color space                              : YUV
Chroma subsampling                       : 4:2:0
Bit depth                                : 8 bits
Scan type                                : Progressive
Bits/(Pixel*Frame)                       : 0.068
Stream size                              : 3.19 GiB (92%)
Writing library                          : x264 core 148 r2597M e86f3a1
Encoding settings                        : cabac=1 / ref=4 / deblock=1:-1:-1 / analyse=0x3:0x113 / me=umh / subme=9 / psy=1 / psy_rd=1.00:0.15 / mixed_ref=1 / me_range=24 / chroma_me=1 / trellis=2 / 8x8dct=1 / cqm=0 / deadzone=21,11 / fast_pskip=1 / chroma_qp_offset=-3 / threads=32 / lookahead_threads=4 / sliced_threads=0 / nr=0 / decimate=1 / interlaced=0 / bluray_compat=0 / constrained_intra=0 / bframes=3 / b_pyramid=2 / b_adapt=2 / b_bias=0 / direct=3 / weightb=1 / open_gop=0 / weightp=2 / keyint=250 / keyint_min=25 / scenecut=40 / intra_refresh=0 / rc_lookahead=50 / rc=2pass / mbtree=1 / bitrate=2500 / ratetol=1.0 / qcomp=0.60 / qpmin=0 / qpmax=69 / qpstep=4 / cplxblur=20.0 / qblur=0.5 / vbv_maxrate=31250 / vbv_bufsize=31250 / nal_hrd=none / filler=0 / ip_ratio=1.40 / aq=3:1.00
Encoded date                             : UTC 2016-07-05 06:23:40
Tagged date                              : UTC 2016-07-05 06:23:40

Audio
ID                                       : 2
Format                                   : AAC
Format/Info                              : Advanced Audio Codec
Format profile                           : LC
Codec ID                                 : 40
Duration                                 : 3h 2mn
Duration_LastFrame                       : 43ms
Bit rate mode                            : Constant
Bit rate                                 : 224 Kbps
Channel(s)                               : 2 channels
Channel(s)_Original                      : 6 channels
Channel positions                        : Front: L C R, Side: L R, LFE
Sampling rate                            : 48.0 KHz
Frame rate                               : 46.875 fps (1024 spf)
Compression mode                         : Lossy
Stream size                              : 292 MiB (8%)
Language                                 : English
Default                                  : Yes
Alternate group                          : 1
Encoded date                             : UTC 2016-07-05 06:23:40
Tagged date                              : UTC 2016-07-05 06:23:40



Szczegoly torrenta
Info Hash
af5619deaac371318787ce3359b87d3abdd47862
Tracker
http://tracker.trackerfix.com:80/announce [EXTERNAL]
Uaktualnienie
24/01/2017 23:17:56 (Jezeli nie widac seeda kliknij na [uaktualnij] by odswiezyc statystyki).
Pokaz/Ukryj Pliki:
6 pliki
Komentarze


Brak komentarzy...


Wstecz