Witamy Guest (Zaloguj) Strona Główna Kontakt Aktywacja/Wsparcie Regulamin
User: Hasło:
Stwórz konto Odzyskiwanie hasła

Kategorie
Filmy :
 » DVD-R1908  
 » VCD/SVCD76  
 » BluRay/x2645242  
 » DivX/XviD64170  
 » Filmy ENG524  
 » RMVB6127  
 » HD0  
 » 3D16  
Seriale :
 » Seriale Polskie2709  
 » Seriale Zagraniczne16999  
Dla Dzieci :
 » Bajki Pl/Eng1195  
Anime :
 » Anime Pl139  
 » Anime1265  
Muzyka :
 » Muzyka Polska/Zagraniczna17344  
 » Soundtracki299  
 » Teledyski/Koncerty1991  
Gry :
 » Gry PC11318  
 » Gry PS2/PS3/PSP1157  
 » Gry Xbox1154  
 » Gry - Inne Konsole456  
GSM/PDA :
 » Tapety GSM/PDA103  
 » Programy GSM/PDA384  
 » Filmy GSM/PDA122  
 » Dzwonki GSM/PDA110  
 » Gry GSM/PDA238  
Ksiazki/Czasopisma :
 » E-Booki9499  
 » Audio-Booki773  
 » Czasopisma1059  
 » Komiksy834  
Programy :
 » Windows11214  
 » Linux475  
 » Macintosh97  
Inne :
 » Tapety2394  
 » Śmieszne80  
 » Sport1175  
 » Pozostale246  
Erotyka :
 » Czasopisma125  
 » Zdjęcia 1531  
 » Filmy46366  
 » Gry 68  
 » Hentai+1853  

WWE Unfiltered with Renee Young S02E04 Paige 720p WEB h264 OVERTiME[rartv]

Kategoria: Sport
Wystawil: 
Data: 07/07/2016
Rozmiar: 496.16 MB
Seedow: 0
Leecherow: 0

Uaktualnij


Pobierz Torrent



OVERTiME.. presents..

WWE.Unfiltered.with.Renee.Young.S02E04.Paige.720p.WEB.h264-OVERTiME

RELEASE.DATE________ 30/06/2016
GENRE_______________ Sport/Talk Show
SOURCE______________ WEB(WWE)
RESOLUTION__________ 1280x720
SIZE________________ 11x50m
FRAMERATE___________ 29.970fps
SUBTITLES___________ N/A

NOTES_______________ A mischief filled episode as Paige and Renee discuss
underwear, whiskey, and shrimp. Plus, some fun
backstage with Maryse.

URL_________________ http://www.tvrage.com/shows/id-48793

** NOW HIRING HDTV/PDTV/WEB/RETAIL CAPPERS FOR INDIE WRESTLING AND MMA **
** THIS INCLUDE CZW/IWA-MS/IWA-DS/PWG/ICW/RPW AND ANY OTHER EVENTS! **

* We currently need..

* TV Cappers in United States/England/Scotland/Ireland/Canada/Australia/EUR.
- Sport Cappers for UFC/WWE/ROH/TNA/MMA/BOXING/EPL/NHL/NBL/NBA/F1/NASCAR etc.
- Can you capture FOX SPORT/NBC SPORT/CBS SPORT/EPSN/SKY SPORT/BT SPORT etc.
* WEB/WEBRip/VOD cappers and untouched feeds. (tv network/foreign websites)
* Do you have a collection of Wrestling, MMA or other Sports on DVD/BluRay?
* Experienced X264 encoder with enough time!
* Experienced programmer who can code custom tools and scripts.

* Find us or send us a Email for a limited time! = electrifying[@]sigaint.org

[+] Show MediaInfo
Video
ID                                       : 1
Format                                   : AVC
Format/Info                              : Advanced Video Codec
Format profile                           : High@L4
Format settings, CABAC                   : Yes
Format settings, ReFrames                : 3 frames
Codec ID                                 : V_MPEG4/ISO/AVC
Duration                                 : 15mn 36s
Bit rate mode                            : Variable
Bit rate                                 : 4 346 Kbps
Maximum bit rate                         : 5 500 Kbps
Width                                    : 1 280 pixels
Height                                   : 720 pixels
Display aspect ratio                     : 16:9
Frame rate mode                          : Constant
Frame rate                               : 29.970 (30000/1001) fps
Color space                              : YUV
Chroma subsampling                       : 4:2:0
Bit depth                                : 8 bits
Scan type                                : Progressive
Bits/(Pixel*Frame)                       : 0.157
Stream size                              : 485 MiB (98%)
Default                                  : Yes
Forced                                   : No

Audio
ID                                       : 2
Format                                   : AAC
Format/Info                              : Advanced Audio Codec
Format profile                           : LC
Codec ID                                 : A_AAC
Duration                                 : 15mn 36s
Bit rate                                 : 93.5 Kbps
Channel(s)                               : 2 channels
Channel positions                        : Front: L R
Sampling rate                            : 48.0 KHz
Frame rate                               : 46.875 fps (1024 spf)
Compression mode                         : Lossy
Delay relative to video                  : -21ms
Stream size                              : 10.4 MiB (2%)
Default                                  : Yes
Forced                                   : No


Szczegoly torrenta
Info Hash
a15075c8ba7578617a5194a8a7783e04147fffd6
Tracker
http://tracker.trackerfix.com:80/announce [EXTERNAL]
Uaktualnienie
23/01/2017 17:02:23 (Jezeli nie widac seeda kliknij na [uaktualnij] by odswiezyc statystyki).
Pokaz/Ukryj Pliki:
3 pliki
Komentarze


Brak komentarzy...


Wstecz