Witamy Guest (Zaloguj) Strona Główna Kontakt Aktywacja/Wsparcie Regulamin
User: Hasło:
Stwórz konto Odzyskiwanie hasła

Kategorie
Filmy :
 » DVD-R1327  
 » VCD/SVCD4  
 » BluRay/x2645088  
 » DivX/XviD59813  
 » Filmy ENG528  
 » RMVB1784  
 » HD1  
 » 3D16  
Seriale :
 » Seriale Polskie2712  
 » Seriale Zagraniczne15354  
Dla Dzieci :
 » Bajki Pl/Eng462  
Anime :
 » Anime Pl5  
 » Anime104  
Muzyka :
 » Muzyka Polska/Zagraniczna10110  
 » Soundtracki42  
 » Teledyski/Koncerty675  
Gry :
 » Gry PC9784  
 » Gry PS2/PS3/PSP618  
 » Gry Xbox758  
 » Gry - Inne Konsole42  
GSM/PDA :
 » Tapety GSM/PDA6  
 » Programy GSM/PDA275  
 » Filmy GSM/PDA2  
 » Dzwonki GSM/PDA17  
 » Gry GSM/PDA76  
Ksiazki/Czasopisma :
 » E-Booki8879  
 » Audio-Booki541  
 » Czasopisma633  
 » Komiksy723  
Programy :
 » Windows3950  
 » Linux109  
 » Macintosh19  
Inne :
 » Tapety337  
 » Śmieszne15  
 » Sport408  
 » Pozostale102  
Erotyka :
 » Czasopisma28  
 » Zdjęcia 951  
 » Filmy63332  
 » Gry 15  
 » Hentai+180  

Sycylijczyk The Sicilian [1987][BRRip 1080p x264 by alE13 AC3] [Lektor i Napisy PL/ENG]

Kategoria: BluRay/x264
Wystawil: 
Data: 30/06/2016
Rozmiar: 7.61 GB
Seedow: 4
Leecherow: 22

Uaktualnij


Pobierz Torrent
http://www.filmweb.pl/film/Sycylijczyk-1987-9930
http://www.imdb.com/title/tt0093966/

reżyseria: Michael Cimino
scenariusz: Steve ShaganMario Puzo
gatunek: Biograficzny,Dramat,Kryminał
produkcja: USA
premiera: 23-10-1987
muzyka:         David Mansfield
zdjęcia:        Alex Thomson
czas:           2h 26mn

opis:
Egocentric bandit Salvatore Giuliano fights the Church, the Mafia, and the landed
gentry while leading a populist movement for Sicilian independence.

Adaptacja bestsellerowej powieści Mario Puzo, ukazująca życie legendarnego przywódcy mafijnego,
Salvatore Giuliano, który w późnych latach 40-tych starał się wyzwolić Sycylię spod panowania
Włoch i uczynić ją jednym ze stanów Ameryki Północnej.

obsada:
Christopher Lambert, Terence Stamp, Joss Ackland

dane techniczne:
The Sicilian (1987)-*censored*.mkv
Format                      : Matroska
Format version              : Version 4 / Version 2
File size                   : 7.53 GiB
Duration                    : 2h 26mn
Overall bit rate            : 7 356 Kbps
Movie name                  : The Sicilian (1987)-*censored*
Encoded date                : UTC 2016-06-29 04:07:48
Writing application         : mkvmerge v8.1.0 ('Psychedelic Postcard') 64bit
Writing library             : libebml v1.3.1 + libmatroska v1.4.2
Attachments                 : 3.jpg

Video
ID                          : 1
Format                      : AVC
Format/Info                 : Advanced Video Codec
Format profile              : High@L4.1
Format settings, CABAC      : Yes
Format settings, ReFrames   : 2 frames
Codec ID                    : V_MPEG4/ISO/AVC
Duration                    : 2h 26mn
Bit rate                    : 6 458 Kbps
Width                       : 1 280 pixels
Height                      : 548 pixels
Display aspect ratio        : 2.35:1
Frame rate mode             : Constant
Frame rate                  : 23.976 (24000/1001) fps
Color space                 : YUV
Chroma subsampling          : 4:2:0
Bit depth                   : 8 bits
Scan type                   : Progressive
Bits/(Pixel*Frame)          : 0.384
Stream size                 : 6.61 GiB (88%)
Title                       : The Sicilian (1987)-*censored*
Writing library             : x264 core 142
Default                     : Yes
Forced                      : No
Color range                 : Limited
Color primaries             : BT.709
Transfer characteristics    : BT.709
Matrix coefficients         : BT.709

Audio #1
ID                          : 2
Format                      : AC-3
Format/Info                 : Audio Coding 3
Mode extension              : CM (complete main)
Format settings, Endianness : Big
Codec ID                    : A_AC3
Duration                    : 2h 26mn
Bit rate mode               : Constant
Bit rate                    : 640 Kbps
Channel(s)                  : 6 channels
Channel positions           : Front: L C R, Side: L R, LFE
Sampling rate               : 48.0 KHz
Frame rate                  : 31.250 fps (1536 spf)
Compression mode            : Lossy
Stream size                 : 671 MiB (9%)
Title                       : The Sicilian (1987)-*censored*
Language                    : English
Default                     : No
Forced                      : No

Audio #2
ID                          : 3
Format                      : AC-3
Format/Info                 : Audio Coding 3
Mode extension              : CM (complete main)
Format settings, Endianness : Big
Codec ID                    : A_AC3
Duration                    : 2h 26mn
Bit rate mode               : Constant
Bit rate                    : 256 Kbps
Channel(s)                  : 2 channels
Channel positions           : Front: L R
Sampling rate               : 48.0 KHz
Frame rate                  : 31.250 fps (1536 spf)
Compression mode            : Lossy
Delay relative to video     : 1s 150ms
Stream size                 : 268 MiB (3%)
Title                       : The Sicilian (1987)-*censored*
Language                    : Polish
Default                     : Yes
Forced                      : No

Text #1
ID                          : 4
Format                      : UTF-8
Codec ID                    : S_TEXT/UTF8
Codec ID/Info               : UTF-8 Plain Text
Duration                    : 2h 17mn
Bit rate                    : 40 bps
Count of elements           : 1094
Stream size                 : 40.7 KiB (0%)
Title                       : The Sicilian (1987)-*censored*
Language                    : Polish
Default                     : Yes
Forced                      : No

Text #2
ID                          : 5
Format                      : UTF-8
Codec ID                    : S_TEXT/UTF8
Codec ID/Info               : UTF-8 Plain Text
Duration                    : 2h 17mn
Bit rate                    : 42 bps
Count of elements           : 1253
Stream size                 : 42.6 KiB (0%)
Title                       : The Sicilian (1987)-*censored*
Language                    : English
Default                     : No
Forced                      : No

Menu
00:00:00.000                : en:00:00:00.000
00:11:49.875                : en:00:11:49.875
00:23:08.595                : en:00:23:08.595
00:36:56.547                : en:00:36:56.547
00:46:45.427                : en:00:46:45.427
00:58:32.509                : en:00:58:32.509
01:12:00.064                : en:01:12:00.065
01:24:09.836                : en:01:24:09.836
01:35:37.814                : en:01:35:37.815
01:47:58.722                : en:01:47:58.722
01:59:17.608                : en:01:59:17.608
02:12:06.835                : en:02:12:06.835
Szczegoly torrenta
Info Hash
80b400e5947e3bfbb2823c132bf23b1017d60654
Tracker
http://tracker.aledarmowe-torrenty.com.pl:2710/announce [EXTERNAL]
Uaktualnienie
27/04/2017 14:47:30 (Jezeli nie widac seeda kliknij na [uaktualnij] by odswiezyc statystyki).
Pokaz/Ukryj Pliki:
10 pliki
Komentarze


Brak komentarzy...


Wstecz