Witamy Guest (Zaloguj) Strona Główna Kontakt Aktywacja/Wsparcie Regulamin
User: Hasło:
Stwórz konto Odzyskiwanie hasła

Kategorie
Filmy :
 » DVD-R1397  
 » VCD/SVCD4  
 » BluRay/x2645540  
 » DivX/XviD62388  
 » Filmy ENG537  
 » RMVB1784  
 » HD1  
 » 3D16  
Seriale :
 » Seriale Polskie2908  
 » Seriale Zagraniczne16875  
Dla Dzieci :
 » Bajki Pl/Eng493  
Anime :
 » Anime Pl5  
 » Anime104  
Muzyka :
 » Muzyka Polska/Zagraniczna10226  
 » Soundtracki42  
 » Teledyski/Koncerty684  
Gry :
 » Gry PC10659  
 » Gry PS2/PS3/PSP620  
 » Gry Xbox758  
 » Gry - Inne Konsole42  
GSM/PDA :
 » Tapety GSM/PDA6  
 » Programy GSM/PDA293  
 » Filmy GSM/PDA2  
 » Dzwonki GSM/PDA17  
 » Gry GSM/PDA76  
Ksiazki/Czasopisma :
 » E-Booki9066  
 » Audio-Booki589  
 » Czasopisma633  
 » Komiksy782  
Programy :
 » Windows4151  
 » Linux109  
 » Macintosh19  
Inne :
 » Tapety339  
 » Śmieszne16  
 » Sport452  
 » Pozostale102  
Erotyka :
 » Czasopisma28  
 » Zdjęcia 960  
 » Filmy71941  
 » Gry 15  
 » Hentai+180  

Mercenary for Justice*2006*1080p BluRay H264 AAC [ENG]

Kategoria: Filmy ENG
Wystawil: 
Data: 09/07/2016
Rozmiar: 1.84 GB
Seedow: 1
Leecherow: 0

Uaktualnij


Pobierz Torrent







[+] Show MediaInfo
Video
ID                                       : 1
Format                                   : AVC
Format/Info                              : Advanced Video Codec
Format profile                           : High@L4.1
Format settings, CABAC                   : Yes
Format settings, ReFrames                : 4 frames
Codec ID                                 : avc1
Codec ID/Info                            : Advanced Video Coding
Duration                                 : 1h 36mn
Bit rate                                 : 2 500 Kbps
Width                                    : 1 920 pixels
Height                                   : 1 040 pixels
Display aspect ratio                     : 1.85:1
Frame rate mode                          : Constant
Frame rate                               : 23.976 (23976/1000) fps
Color space                              : YUV
Chroma subsampling                       : 4:2:0
Bit depth                                : 8 bits
Scan type                                : Progressive
Bits/(Pixel*Frame)                       : 0.052
Stream size                              : 1.68 GiB (92%)
Writing library                          : x264 core 148 r2597M e86f3a1
Encoding settings                        : cabac=1 / ref=4 / deblock=1:-1:-1 / analyse=0x3:0x113 / me=umh / subme=9 / psy=1 / psy_rd=1.00:0.15 / mixed_ref=1 / me_range=24 / chroma_me=1 / trellis=2 / 8x8dct=1 / cqm=0 / deadzone=21,11 / fast_pskip=1 / chroma_qp_offset=-3 / threads=32 / lookahead_threads=4 / sliced_threads=0 / nr=0 / decimate=1 / interlaced=0 / bluray_compat=0 / constrained_intra=0 / bframes=3 / b_pyramid=2 / b_adapt=2 / b_bias=0 / direct=3 / weightb=1 / open_gop=0 / weightp=2 / keyint=250 / keyint_min=25 / scenecut=40 / intra_refresh=0 / rc_lookahead=50 / rc=2pass / mbtree=1 / bitrate=2500 / ratetol=1.0 / qcomp=0.60 / qpmin=0 / qpmax=69 / qpstep=4 / cplxblur=20.0 / qblur=0.5 / vbv_maxrate=31250 / vbv_bufsize=31250 / nal_hrd=none / filler=0 / ip_ratio=1.40 / aq=3:1.00
Encoded date                             : UTC 2016-07-08 06:31:13
Tagged date                              : UTC 2016-07-08 06:31:13

Audio
ID                                       : 2
Format                                   : AAC
Format/Info                              : Advanced Audio Codec
Format profile                           : LC
Codec ID                                 : 40
Duration                                 : 1h 36mn
Bit rate mode                            : Constant
Bit rate                                 : 224 Kbps
Channel(s)                               : 2 channels
Channel(s)_Original                      : 6 channels
Channel positions                        : Front: L C R, Side: L R, LFE
Sampling rate                            : 48.0 KHz
Frame rate                               : 46.875 fps (1024 spf)
Compression mode                         : Lossy
Stream size                              : 154 MiB (8%)
Language                                 : English
Default                                  : Yes
Alternate group                          : 1
Encoded date                             : UTC 2016-07-08 06:31:13
Tagged date                              : UTC 2016-07-08 06:31:13



Szczegoly torrenta
Info Hash
7c0e2904cdc0e5c11e54381d853076f99104d8ea
Tracker
http://tracker.trackerfix.com:80/announce [EXTERNAL]
Uaktualnienie
27/06/2017 22:45:45 (Jezeli nie widac seeda kliknij na [uaktualnij] by odswiezyc statystyki).
Pokaz/Ukryj Pliki:
4 pliki
Komentarze


Brak komentarzy...


Wstecz