Witamy Guest (Zaloguj) Strona Główna Kontakt Aktywacja/Wsparcie Regulamin
User: Hasło:
Stwórz konto Odzyskiwanie hasła

Kategorie
Filmy :
 » DVD-R1908  
 » VCD/SVCD76  
 » BluRay/x2645242  
 » DivX/XviD64170  
 » Filmy ENG524  
 » RMVB6127  
 » HD0  
 » 3D16  
Seriale :
 » Seriale Polskie2709  
 » Seriale Zagraniczne16999  
Dla Dzieci :
 » Bajki Pl/Eng1195  
Anime :
 » Anime Pl139  
 » Anime1265  
Muzyka :
 » Muzyka Polska/Zagraniczna17344  
 » Soundtracki299  
 » Teledyski/Koncerty1991  
Gry :
 » Gry PC11318  
 » Gry PS2/PS3/PSP1157  
 » Gry Xbox1154  
 » Gry - Inne Konsole456  
GSM/PDA :
 » Tapety GSM/PDA103  
 » Programy GSM/PDA384  
 » Filmy GSM/PDA122  
 » Dzwonki GSM/PDA110  
 » Gry GSM/PDA238  
Ksiazki/Czasopisma :
 » E-Booki9499  
 » Audio-Booki773  
 » Czasopisma1059  
 » Komiksy834  
Programy :
 » Windows11214  
 » Linux475  
 » Macintosh97  
Inne :
 » Tapety2394  
 » Śmieszne80  
 » Sport1175  
 » Pozostale246  
Erotyka :
 » Czasopisma125  
 » Zdjęcia 1531  
 » Filmy46366  
 » Gry 68  
 » Hentai+1853  

Mission Impossible 1996 1080p BluRay H264 AAC [ENG]

Kategoria: Filmy ENG
Wystawil: 
Data: 09/07/2016
Rozmiar: 2.10 GB
Seedow: 1
Leecherow: 3

Uaktualnij


Pobierz Torrent
Mission.Impossible.1996.1080p.BluRay.H264.AAC-RARBG

http://www.imdb.com/title/tt0117060/



Screens:







Info:

[+] Show MediaInfo

Video
ID                                       : 1
Format                                   : AVC
Format/Info                              : Advanced Video Codec
Format profile                           : High@L4.1
Format settings, CABAC                   : Yes
Format settings, ReFrames                : 4 frames
Codec ID                                 : avc1
Codec ID/Info                            : Advanced Video Coding
Duration                                 : 1h 50mn
Bit rate                                 : 2 500 Kbps
Width                                    : 1 916 pixels
Height                                   : 796 pixels
Display aspect ratio                     : 2.40:1
Frame rate mode                          : Constant
Frame rate                               : 23.976 fps
Color space                              : YUV
Chroma subsampling                       : 4:2:0
Bit depth                                : 8 bits
Scan type                                : Progressive
Bits/(Pixel*Frame)                       : 0.068
Stream size                              : 1.92 GiB (92%)
Writing library                          : x264 core 142 r2453kMod ea0ca51

Audio
ID                                       : 2
Format                                   : AAC
Format/Info                              : Advanced Audio Codec
Format profile                           : LC
Codec ID                                 : 40
Duration                                 : 1h 50mn
Bit rate mode                            : Constant
Bit rate                                 : 224 Kbps
Channel(s)                               : 6 channels
Channel positions                        : Front: L C R, Side: L R, LFE
Sampling rate                            : 48.0 KHz
Compression mode                         : Lossy
Stream size                              : 175 MiB (8%)




Notes:
Greetz to everyone
Szczegoly torrenta
Info Hash
7895817eb5ac1a2607759eee6e81ebbd7facb585
Tracker
http://tracker.trackerfix.com:80/announce [EXTERNAL]
Uaktualnienie
18/01/2017 18:09:50 (Jezeli nie widac seeda kliknij na [uaktualnij] by odswiezyc statystyki).
Pokaz/Ukryj Pliki:
4 pliki
Komentarze


Brak komentarzy...


Wstecz