Witamy Guest (Zaloguj) Strona Główna Kontakt Aktywacja/Wsparcie Regulamin
User: Hasło:
Stwórz konto Odzyskiwanie hasła

Kategorie
Filmy :
 » DVD-R1311  
 » VCD/SVCD4  
 » BluRay/x2644841  
 » DivX/XviD58119  
 » Filmy ENG526  
 » RMVB1784  
 » HD1  
 » 3D16  
Seriale :
 » Seriale Polskie2409  
 » Seriale Zagraniczne14516  
Dla Dzieci :
 » Bajki Pl/Eng428  
Anime :
 » Anime Pl5  
 » Anime104  
Muzyka :
 » Muzyka Polska/Zagraniczna9782  
 » Soundtracki41  
 » Teledyski/Koncerty671  
Gry :
 » Gry PC9238  
 » Gry PS2/PS3/PSP618  
 » Gry Xbox758  
 » Gry - Inne Konsole42  
GSM/PDA :
 » Tapety GSM/PDA6  
 » Programy GSM/PDA262  
 » Filmy GSM/PDA2  
 » Dzwonki GSM/PDA17  
 » Gry GSM/PDA76  
Ksiazki/Czasopisma :
 » E-Booki8755  
 » Audio-Booki490  
 » Czasopisma627  
 » Komiksy723  
Programy :
 » Windows3717  
 » Linux109  
 » Macintosh17  
Inne :
 » Tapety337  
 » Śmieszne15  
 » Sport392  
 » Pozostale102  
Erotyka :
 » Czasopisma28  
 » Zdjęcia 948  
 » Filmy56409  
 » Gry 15  
 » Hentai+180  

Mission Impossible 1996 1080p BluRay H264 AAC [ENG]

Kategoria: Filmy ENG
Wystawil: 
Data: 09/07/2016
Rozmiar: 2.10 GB
Seedow: 1
Leecherow: 2

Uaktualnij


Pobierz Torrent
Mission.Impossible.1996.1080p.BluRay.H264.AAC-RARBG

http://www.imdb.com/title/tt0117060/



Screens:







Info:

[+] Show MediaInfo

Video
ID                                       : 1
Format                                   : AVC
Format/Info                              : Advanced Video Codec
Format profile                           : High@L4.1
Format settings, CABAC                   : Yes
Format settings, ReFrames                : 4 frames
Codec ID                                 : avc1
Codec ID/Info                            : Advanced Video Coding
Duration                                 : 1h 50mn
Bit rate                                 : 2 500 Kbps
Width                                    : 1 916 pixels
Height                                   : 796 pixels
Display aspect ratio                     : 2.40:1
Frame rate mode                          : Constant
Frame rate                               : 23.976 fps
Color space                              : YUV
Chroma subsampling                       : 4:2:0
Bit depth                                : 8 bits
Scan type                                : Progressive
Bits/(Pixel*Frame)                       : 0.068
Stream size                              : 1.92 GiB (92%)
Writing library                          : x264 core 142 r2453kMod ea0ca51

Audio
ID                                       : 2
Format                                   : AAC
Format/Info                              : Advanced Audio Codec
Format profile                           : LC
Codec ID                                 : 40
Duration                                 : 1h 50mn
Bit rate mode                            : Constant
Bit rate                                 : 224 Kbps
Channel(s)                               : 6 channels
Channel positions                        : Front: L C R, Side: L R, LFE
Sampling rate                            : 48.0 KHz
Compression mode                         : Lossy
Stream size                              : 175 MiB (8%)




Notes:
Greetz to everyone
Szczegoly torrenta
Info Hash
7895817eb5ac1a2607759eee6e81ebbd7facb585
Tracker
http://tracker.trackerfix.com:80/announce [EXTERNAL]
Uaktualnienie
23/03/2017 12:23:28 (Jezeli nie widac seeda kliknij na [uaktualnij] by odswiezyc statystyki).
Pokaz/Ukryj Pliki:
4 pliki
Komentarze


Brak komentarzy...


Wstecz