Witamy Guest (Zaloguj) Strona Główna Kontakt Aktywacja/Wsparcie Regulamin
User: Hasło:
Stwórz konto Odzyskiwanie hasła

Kategorie
Filmy :
 » DVD-R1397  
 » VCD/SVCD4  
 » BluRay/x2645540  
 » DivX/XviD62388  
 » Filmy ENG537  
 » RMVB1784  
 » HD1  
 » 3D16  
Seriale :
 » Seriale Polskie2908  
 » Seriale Zagraniczne16876  
Dla Dzieci :
 » Bajki Pl/Eng493  
Anime :
 » Anime Pl5  
 » Anime104  
Muzyka :
 » Muzyka Polska/Zagraniczna10226  
 » Soundtracki42  
 » Teledyski/Koncerty684  
Gry :
 » Gry PC10659  
 » Gry PS2/PS3/PSP620  
 » Gry Xbox758  
 » Gry - Inne Konsole42  
GSM/PDA :
 » Tapety GSM/PDA6  
 » Programy GSM/PDA293  
 » Filmy GSM/PDA2  
 » Dzwonki GSM/PDA17  
 » Gry GSM/PDA76  
Ksiazki/Czasopisma :
 » E-Booki9066  
 » Audio-Booki589  
 » Czasopisma633  
 » Komiksy782  
Programy :
 » Windows4151  
 » Linux109  
 » Macintosh19  
Inne :
 » Tapety339  
 » Śmieszne16  
 » Sport452  
 » Pozostale102  
Erotyka :
 » Czasopisma28  
 » Zdjęcia 960  
 » Filmy71941  
 » Gry 15  
 » Hentai+180  

WWE Main Event*2016*06 14 720p WEB h264 OVERTiME[rartv]

Kategoria: Sport
Wystawil: 
Data: 07/07/2016
Rozmiar: 1.28 GB
Seedow: 0
Leecherow: 0

Uaktualnij


Pobierz Torrent



OVERTiME.. presents..

WWE.Main.Event.2016.06.14.720p.WEB.h264-OVERTiME

RELEASE.DATE________ 02/07/2016
GENRE_______________ Sport
SOURCE______________ WEB(WWE)
RESOLUTION__________ 1280x720
SIZE________________ 28x50m
FRAMERATE___________ 29.970fps
SUBTITLES___________ N/A

NOTES_______________ Featuring Apollo Crews vs. Bubba Ray Dudley and
previews of WWE Money In The Bank.

WWE Main Event is only available 18 days after
airing on WWE network.

URL_________________ http://www.tvrage.com/wwe-main-event

** NOW HIRING HDTV/PDTV/WEB/RETAIL CAPPERS FOR INDIE WRESTLING AND MMA **
** THIS INCLUDE CZW/IWA-MS/IWA-DS/PWG/ICW/RPW AND ANY OTHER EVENTS! **

* We currently need..

* TV Cappers in United States/England/Scotland/Ireland/Canada/Australia/EUR.
- Sport Cappers for UFC/WWE/ROH/TNA/MMA/BOXING/EPL/NHL/NBL/NBA/F1/NASCAR etc.
- Can you capture FOX SPORT/NBC SPORT/CBS SPORT/EPSN/SKY SPORT/BT SPORT etc.
* WEB/WEBRip/VOD cappers and untouched feeds. (tv network/foreign websites)
* Do you have a collection of Wrestling, MMA or other Sports on DVD/BluRay?
* Experienced X264 encoder with enough time!
* Experienced programmer who can code custom tools and scripts.

* Find us or send us a Email for a limited time! = electrifying[@]sigaint.org

[+] Show MediaInfo
Video
ID                                       : 1
Format                                   : AVC
Format/Info                              : Advanced Video Codec
Format profile                           : High@L4
Format settings, CABAC                   : Yes
Format settings, ReFrames                : 3 frames
Codec ID                                 : V_MPEG4/ISO/AVC
Duration                                 : 41mn 23s
Bit rate mode                            : Variable
Bit rate                                 : 4 331 Kbps
Maximum bit rate                         : 5 500 Kbps
Width                                    : 1 280 pixels
Height                                   : 720 pixels
Display aspect ratio                     : 16:9
Frame rate mode                          : Constant
Frame rate                               : 29.970 (30000/1001) fps
Color space                              : YUV
Chroma subsampling                       : 4:2:0
Bit depth                                : 8 bits
Scan type                                : Progressive
Bits/(Pixel*Frame)                       : 0.157
Stream size                              : 1.25 GiB (98%)
Default                                  : Yes
Forced                                   : No

Audio
ID                                       : 2
Format                                   : AAC
Format/Info                              : Advanced Audio Codec
Format profile                           : LC
Codec ID                                 : A_AAC
Duration                                 : 41mn 23s
Bit rate                                 : 93.5 Kbps
Channel(s)                               : 2 channels
Channel positions                        : Front: L R
Sampling rate                            : 48.0 KHz
Frame rate                               : 46.875 fps (1024 spf)
Compression mode                         : Lossy
Delay relative to video                  : -21ms
Stream size                              : 27.7 MiB (2%)
Default                                  : Yes
Forced                                   : No


Szczegoly torrenta
Info Hash
3e0ef15a00ee6339302d1f8e6797ce19b0051e0f
Tracker
http://tracker.trackerfix.com:80/announce [EXTERNAL]
Uaktualnienie
27/06/2017 22:50:29 (Jezeli nie widac seeda kliknij na [uaktualnij] by odswiezyc statystyki).
Pokaz/Ukryj Pliki:
3 pliki
Komentarze


Brak komentarzy...


Wstecz