Witamy Guest (Zaloguj) Strona Główna Kontakt Aktywacja/Wsparcie Regulamin
User: Hasło:
Stwórz konto Odzyskiwanie hasła

Kategorie
Filmy :
 » DVD-R1327  
 » VCD/SVCD4  
 » BluRay/x2645087  
 » DivX/XviD59709  
 » Filmy ENG528  
 » RMVB1784  
 » HD1  
 » 3D16  
Seriale :
 » Seriale Polskie2690  
 » Seriale Zagraniczne15309  
Dla Dzieci :
 » Bajki Pl/Eng462  
Anime :
 » Anime Pl5  
 » Anime104  
Muzyka :
 » Muzyka Polska/Zagraniczna10108  
 » Soundtracki42  
 » Teledyski/Koncerty674  
Gry :
 » Gry PC9784  
 » Gry PS2/PS3/PSP618  
 » Gry Xbox758  
 » Gry - Inne Konsole42  
GSM/PDA :
 » Tapety GSM/PDA6  
 » Programy GSM/PDA275  
 » Filmy GSM/PDA2  
 » Dzwonki GSM/PDA17  
 » Gry GSM/PDA76  
Ksiazki/Czasopisma :
 » E-Booki8879  
 » Audio-Booki539  
 » Czasopisma633  
 » Komiksy723  
Programy :
 » Windows3950  
 » Linux109  
 » Macintosh19  
Inne :
 » Tapety337  
 » Śmieszne15  
 » Sport408  
 » Pozostale102  
Erotyka :
 » Czasopisma28  
 » Zdjęcia 951  
 » Filmy63012  
 » Gry 15  
 » Hentai+180  

WWE Superstars*2016*07 01 720p WEB h264 OVERTiME[rartv]

Kategoria: Sport
Wystawil: 
Data: 07/07/2016
Rozmiar: 1.61 GB
Seedow: 1
Leecherow: 0

Uaktualnij


Pobierz Torrent



OVERTiME.. presents..

WWE.Superstars.2016.07.01.720p.WEB.h264-OVERTiME

RELEASE.DATE________ 01/07/2016
GENRE_______________ Sport
SOURCE______________ WEB(WWE)
RESOLUTION__________ 1280x720
SIZE________________ 35x50m
FRAMERATE___________ 29.970fps
SUBTITLES___________ N/A

NOTES_______________ This week, the dynamic duo known as Golden Truth take
on The Ascension. We'll also see Baron Corbin go one
on one with Jack Swagger.

URL_________________ http://www.tvrage.com/wwe-superstars

** NOW HIRING HDTV/PDTV/WEB/RETAIL CAPPERS FOR INDIE WRESTLING AND MMA **
** THIS INCLUDE CZW/IWA-MS/IWA-DS/PWG/ICW/RPW AND ANY OTHER EVENTS! **

* We currently need..

* TV Cappers in United States/England/Scotland/Ireland/Canada/Australia/EUR.
- Sport Cappers for UFC/WWE/ROH/TNA/MMA/BOXING/EPL/NHL/NBL/NBA/F1/NASCAR etc.
- Can you capture FOX SPORT/NBC SPORT/CBS SPORT/EPSN/SKY SPORT/BT SPORT etc.
* WEB/WEBRip/VOD cappers and untouched feeds. (tv network/foreign websites)
* Do you have a collection of Wrestling, MMA or other Sports on DVD/BluRay?
* Experienced X264 encoder with enough time!
* Experienced programmer who can code custom tools and scripts.

* Find us or send us a Email for a limited time! = electrifying[@]sigaint.org

[+] Show MediaInfo
Video
ID                                       : 1
Format                                   : AVC
Format/Info                              : Advanced Video Codec
Format profile                           : High@L4
Format settings, CABAC                   : Yes
Format settings, ReFrames                : 3 frames
Codec ID                                 : V_MPEG4/ISO/AVC
Duration                                 : 51mn 58s
Bit rate mode                            : Variable
Bit rate                                 : 4 332 Kbps
Maximum bit rate                         : 5 500 Kbps
Width                                    : 1 280 pixels
Height                                   : 720 pixels
Display aspect ratio                     : 16:9
Frame rate mode                          : Constant
Frame rate                               : 29.970 (30000/1001) fps
Color space                              : YUV
Chroma subsampling                       : 4:2:0
Bit depth                                : 8 bits
Scan type                                : Progressive
Bits/(Pixel*Frame)                       : 0.157
Stream size                              : 1.57 GiB (98%)
Default                                  : Yes
Forced                                   : No

Audio
ID                                       : 2
Format                                   : AAC
Format/Info                              : Advanced Audio Codec
Format profile                           : LC
Codec ID                                 : A_AAC
Duration                                 : 51mn 58s
Bit rate                                 : 93.5 Kbps
Channel(s)                               : 2 channels
Channel positions                        : Front: L R
Sampling rate                            : 48.0 KHz
Frame rate                               : 46.875 fps (1024 spf)
Compression mode                         : Lossy
Delay relative to video                  : -21ms
Stream size                              : 34.7 MiB (2%)
Default                                  : Yes
Forced                                   : No


Szczegoly torrenta
Info Hash
38ced633cafbfe3cae21f7cc6f60441ca10fdc3f
Tracker
http://tracker.trackerfix.com:80/announce [EXTERNAL]
Uaktualnienie
26/04/2017 00:17:02 (Jezeli nie widac seeda kliknij na [uaktualnij] by odswiezyc statystyki).
Pokaz/Ukryj Pliki:
3 pliki
Komentarze


Brak komentarzy...


Wstecz