Witamy Guest (Zaloguj) Strona Główna Kontakt Aktywacja/Wsparcie Regulamin
User: Hasło:
Stwórz konto Odzyskiwanie hasła

Kategorie
Filmy :
 » DVD-R1940  
 » VCD/SVCD76  
 » BluRay/x2645421  
 » DivX/XviD65279  
 » Filmy ENG526  
 » RMVB6148  
 » HD1  
 » 3D16  
Seriale :
 » Seriale Polskie2798  
 » Seriale Zagraniczne17604  
Dla Dzieci :
 » Bajki Pl/Eng1208  
Anime :
 » Anime Pl139  
 » Anime1265  
Muzyka :
 » Muzyka Polska/Zagraniczna17637  
 » Soundtracki299  
 » Teledyski/Koncerty2003  
Gry :
 » Gry PC11632  
 » Gry PS2/PS3/PSP1158  
 » Gry Xbox1156  
 » Gry - Inne Konsole456  
GSM/PDA :
 » Tapety GSM/PDA103  
 » Programy GSM/PDA396  
 » Filmy GSM/PDA122  
 » Dzwonki GSM/PDA110  
 » Gry GSM/PDA240  
Ksiazki/Czasopisma :
 » E-Booki9564  
 » Audio-Booki869  
 » Czasopisma1060  
 » Komiksy844  
Programy :
 » Windows11328  
 » Linux475  
 » Macintosh97  
Inne :
 » Tapety2394  
 » Śmieszne80  
 » Sport1185  
 » Pozostale246  
Erotyka :
 » Czasopisma125  
 » Zdjęcia 1532  
 » Filmy54576  
 » Gry 68  
 » Hentai+1853  

UEFA Euro*2016*Quarter Final Poland vs Portugal 720p WEB h264 OVERTiME[rartv]

Kategoria: Sport
Wystawil: 
Data: 07/07/2016
Rozmiar: 2.36 GB
Seedow: 0
Leecherow: 0

Uaktualnij


Pobierz Torrent



OVERTiME.. presents..

UEFA.Euro.2016.Quarter.Final.Poland.vs.Portugal.720p.WEB.h264-OVERTiME

RELEASE.DATE________ 01/07/2016
GENRE_______________ Sport
SOURCE______________ WEB(BBC)
RESOLUTION__________ 1280x720
SIZE________________ 51x50m
FRAMERATE___________ 25.000fps
SUBTITLES___________ English

NOTES_______________ A chance to watch the day's Euro 2016 quarter-final
match between Poland and Portugal from Marseille.

URL_________________ http://www.tvrage.com/euro-2016

** NOW HIRING HDTV/PDTV/WEB/RETAIL CAPPERS FOR INDIE WRESTLING AND MMA **
** THIS INCLUDE CZW/IWA-MS/IWA-DS/PWG/ICW/RPW AND ANY OTHER EVENTS! **

* We currently need..

* TV Cappers in United States/England/Scotland/Ireland/Canada/Australia/EUR.
- Sport Cappers for UFC/WWE/ROH/TNA/MMA/BOXING/EPL/NHL/NBL/NBA/F1/NASCAR etc.
- Can you capture FOX SPORT/NBC SPORT/CBS SPORT/EPSN/SKY SPORT/BT SPORT etc.
* WEB/WEBRip/VOD cappers and untouched feeds. (tv network/foreign websites)
* Do you have a collection of Wrestling, MMA or other Sports on DVD/BluRay?
* Experienced X264 encoder with enough time!
* Experienced programmer who can code custom tools and scripts.

* Find us or send us a Email for a limited time! = electrifying[@]sigaint.org

[+] Show MediaInfo
Video
ID                                       : 2
Format                                   : AVC
Format/Info                              : Advanced Video Codec
Format profile                           : High@L4.1
Format settings, CABAC                   : Yes
Format settings, ReFrames                : 2 frames
Codec ID                                 : V_MPEG4/ISO/AVC
Duration                                 : 2h 22mn
Bit rate mode                            : Variable
Bit rate                                 : 2 279 Kbps
Maximum bit rate                         : 3 500 Kbps
Width                                    : 1 280 pixels
Height                                   : 720 pixels
Display aspect ratio                     : 16:9
Frame rate mode                          : Constant
Frame rate                               : 25.000 fps
Color space                              : YUV
Chroma subsampling                       : 4:2:0
Bit depth                                : 8 bits
Scan type                                : Progressive
Bits/(Pixel*Frame)                       : 0.099
Stream size                              : 2.27 GiB (96%)
Default                                  : Yes
Forced                                   : No

Audio
ID                                       : 3
Format                                   : AAC
Format/Info                              : Advanced Audio Codec
Format profile                           : LC
Codec ID                                 : A_AAC
Duration                                 : 2h 22mn
Bit rate                                 : 93.5 Kbps
Channel(s)                               : 2 channels
Channel positions                        : Front: L R
Sampling rate                            : 48.0 KHz
Frame rate                               : 46.875 fps (1024 spf)
Compression mode                         : Lossy
Stream size                              : 95.2 MiB (4%)
Default                                  : Yes
Forced                                   : No

Text
ID                                       : 1
Format                                   : UTF-8
Codec ID                                 : S_TEXT/UTF8
Codec ID/Info                            : UTF-8 Plain Text
Duration                                 : 2h 22mn
Bit rate                                 : 51 bps
Count of elements                        : 833
Stream size                              : 53.4 KiB (0%)
Title                                    : en
Default                                  : No
Forced                                   : No


Szczegoly torrenta
Info Hash
3036fbc719efca93304753f47877e7761463e1df
Tracker
http://tracker.trackerfix.com:80/announce [EXTERNAL]
Uaktualnienie
23/02/2017 01:08:47 (Jezeli nie widac seeda kliknij na [uaktualnij] by odswiezyc statystyki).
Pokaz/Ukryj Pliki:
3 pliki
Komentarze


Brak komentarzy...


Wstecz