Witamy Guest (Zaloguj) Strona Główna Kontakt Aktywacja/Wsparcie Regulamin
User: Hasło:
Stwórz konto Odzyskiwanie hasła

Kategorie
Filmy :
 » DVD-R1327  
 » VCD/SVCD4  
 » BluRay/x2645088  
 » DivX/XviD59813  
 » Filmy ENG528  
 » RMVB1784  
 » HD1  
 » 3D16  
Seriale :
 » Seriale Polskie2712  
 » Seriale Zagraniczne15354  
Dla Dzieci :
 » Bajki Pl/Eng462  
Anime :
 » Anime Pl5  
 » Anime104  
Muzyka :
 » Muzyka Polska/Zagraniczna10110  
 » Soundtracki42  
 » Teledyski/Koncerty675  
Gry :
 » Gry PC9784  
 » Gry PS2/PS3/PSP618  
 » Gry Xbox758  
 » Gry - Inne Konsole42  
GSM/PDA :
 » Tapety GSM/PDA6  
 » Programy GSM/PDA275  
 » Filmy GSM/PDA2  
 » Dzwonki GSM/PDA17  
 » Gry GSM/PDA76  
Ksiazki/Czasopisma :
 » E-Booki8879  
 » Audio-Booki541  
 » Czasopisma633  
 » Komiksy723  
Programy :
 » Windows3950  
 » Linux109  
 » Macintosh19  
Inne :
 » Tapety337  
 » Śmieszne15  
 » Sport408  
 » Pozostale102  
Erotyka :
 » Czasopisma28  
 » Zdjęcia 951  
 » Filmy63332  
 » Gry 15  
 » Hentai+180  

Kacze Wakacje Quackerz 3D [2016][BRRip 1080p x264 by alE13 AC3/DTS] [Napisy PL/ENG]

Kategoria: 3D
Wystawil: 
Data: 10/07/2016
Rozmiar: 7.32 GB
Seedow: 6
Leecherow: 4

Uaktualnij


Pobierz Torrent
http://imdb.com/title/tt3723780/

Film w wersji 3D Half- Over/Under.

produkcja: Rosja
data premiery: 14-02-2016
reżyseria: Viktor Lakisov
scenariusz: Viktor Lakisov
gatunek: komedia, animacja, przygodowy
czas: 1h 21mn

The battle between ducks and humans for the place under the sun.

Wędrowne kaczki krzyżówki, zdecydowały się spędzić wakacje na Hawajach, pobłądziły i wylądowały
na małej chińskiej wyspie, która jest domem kaczek mandarynek. Pomiędzy nimi następują spory
skąd wynikają ciekawe i zabawne sytuacje. Longway syn cesarza mandarynek, poznaje córkę wodza
kaczek krzyżówek i się zaprzyjaźniają.
Młodzi muszą zjednoczyć siły mandarynek i krzyżówek aby pokonały wiedźmę, która chce zniszczyć słońce.

Michael Gross, Jesse Corti, Robbie Daymond (voice)

Quackerz 3D (2016)-*censored*.mkv
Format : Matroska
Format version : Version 4 / Version 2
File size : 7.23 GiB
Duration : 1h 21mn
Overall bit rate : 12.6 Mbps
Movie name : Quackerz 3D (2016)-*censored*
Encoded date : UTC 2016-06-14 17:01:45
Writing application : mkvmerge v8.1.0 ('Psychedelic Postcard') 64bit
Writing library : libebml v1.3.1 + libmatroska v1.4.2

Video
ID : 1
Format : AVC
Format/INFO : Advanced Video Codec
Format profile : High@L4.1
Format settings, CABAC : Yes
Format settings, ReFrames : 2 frames
Codec ID : V_MPEG4/ISO/AVC
Duration : 1h 21mn
Bit rate : 8 253 Kbps
Width : 1 920 pixels
Height : 1 080 pixels
Display aspect ratio : 16:9
Frame rate mode : Constant
Frame rate : 23.976 (24000/1001) fps
Color space : YUV
Chroma subsampling : 4:2:0
Bit depth : 8 bits
Scan type : Progressive
Bits/(Pixel*Frame) : 0.166
Stream size : 4.72 GiB (65%)
Title : Quackerz 3D (2016)-*censored*
Writing library : x264 core 142
Default : Yes
Forced : No
Color range : Limited
Color primaries : BT.709
Transfer characteristics : BT.709
Matrix coefficients : BT.709

Audio #1
ID : 2
Format : AC-3
Format/INFO : Audio Coding 3
Mode extension : CM (complete main)
Format settings, Endianness : Big
Codec ID : A_AC3
Duration : 1h 21mn
Bit rate mode : Constant
Bit rate : 640 Kbps
Channel(s) : 6 channels
Channel positions : Front: L C R, Side: L R, LFE
Sampling rate : 48.0 KHz
Frame rate : 31.250 fps (1536 spf)
Compression mode : Lossy
Stream size : 375 MiB (5%)
Title : Quackerz 3D (2016)-*censored*
Language : English
Default : No
Forced : No

Audio #2
ID : 3
Format : DTS
Format/INFO : Digital Theater Systems
Format profile : MA / Core
Mode : 16
Format settings, Endianness : Big
Codec ID : A_DTS
Duration : 1h 21mn
Bit rate mode : Variable / Constant
Bit rate : 3 710 Kbps / 1 509 Kbps
Channel(s) : 6 channels
Channel positions : Front: L C R, Side: L R, LFE
Sampling rate : 48.0 KHz
Frame rate : 93.750 fps (512 spf)
Bit depth : 24 bits
Compression mode : Lossless / Lossy
Stream size : 2.12 GiB (29%)
Title : _DTS
Language : English
Default : No
Forced : No

Text #1
ID : 4
Format : VobSub
Muxing mode : zlib
Codec ID : S_VOBSUB
Codec ID/INFO : Picture based subtitle format used on DVDs
Duration : 1h 19mn
Bit rate : 9 893 bps
Count of elements : 1080
Stream size : 5.63 MiB (0%)
Title : Quackerz 3D (2016)-*censored*
Language : Polish
Default : Yes
Forced : No

Text #2
ID : 5
Format : VobSub
Muxing mode : zlib
Codec ID : S_VOBSUB
Codec ID/INFO : Picture based subtitle format used on DVDs
Duration : 1h 19mn
Bit rate : 9 970 bps
Count of elements : 1280
Stream size : 5.67 MiB (0%)
Title : Quackerz 3D (2016)-*censored*
Language : English
Default : No
Forced : No

Menu
00:00:00.000 : en:(01)00:00:00:000
Szczegoly torrenta
Info Hash
249cd74dbbf9809fab8b0e6ee1e97e18cc13b87b
Tracker
http://tracker.aledarmowe-torrenty.com.pl:2710/announce [EXTERNAL]
Uaktualnienie
27/04/2017 14:46:07 (Jezeli nie widac seeda kliknij na [uaktualnij] by odswiezyc statystyki).
Pokaz/Ukryj Pliki:
9 pliki
Komentarze


Brak komentarzy...


Wstecz