Witamy Guest (Zaloguj) Strona Główna Kontakt Aktywacja/Wsparcie Regulamin
User: Hasło:
Stwórz konto Odzyskiwanie hasła

Kategorie
Filmy :
 » DVD-R1414  
 » VCD/SVCD4  
 » BluRay/x2645830  
 » DivX/XviD63844  
 » Filmy ENG554  
 » RMVB1784  
 » HD1  
 » 3D16  
Seriale :
 » Seriale Polskie2929  
 » Seriale Zagraniczne17544  
Dla Dzieci :
 » Bajki Pl/Eng501  
Anime :
 » Anime Pl5  
 » Anime104  
Muzyka :
 » Muzyka Polska/Zagraniczna10329  
 » Soundtracki42  
 » Teledyski/Koncerty688  
Gry :
 » Gry PC10986  
 » Gry PS2/PS3/PSP621  
 » Gry Xbox758  
 » Gry - Inne Konsole42  
GSM/PDA :
 » Tapety GSM/PDA6  
 » Programy GSM/PDA296  
 » Filmy GSM/PDA2  
 » Dzwonki GSM/PDA17  
 » Gry GSM/PDA77  
Ksiazki/Czasopisma :
 » E-Booki9130  
 » Audio-Booki605  
 » Czasopisma633  
 » Komiksy782  
Programy :
 » Windows4218  
 » Linux109  
 » Macintosh19  
Inne :
 » Tapety339  
 » Śmieszne17  
 » Sport511  
 » Pozostale102  
Erotyka :
 » Czasopisma28  
 » Zdjęcia 963  
 » Filmy74064  
 » Gry 15  
 » Hentai+180  

Tajemnice Ukrytego Świata Mysteries of the Unseen World 3D [2013][BRRip 1080p x264 by alE13 AC3/DTS] [Napisy PL]

Kategoria: 3D
Wystawil: 
Data: 10/07/2016
Rozmiar: 5.22 GB
Seedow: 5
Leecherow: 2

Uaktualnij


Pobierz Torrent
reżyseria: Louie Schwartzberg
scenariusz: Mose Richards
gatunek: Dokumentalny,Krótkometrażowy
produkcja: USA
premiera: 01-11-2013
czas: 39mn 7s

MYSTERIES OF THE UNSEEN WORLD transports audiences to places on this planet that they have never
been before, to see things that are beyond their normal vision, yet literally right in front of
their eyes. Mysteries of the Unseen World reveals phenomena that can't be seen with the naked eye,
taking audiences into earthly worlds secreted away in different dimensions of time and scale.
Viewers experience events that unfold too slowly for human perception; They "see" the beauty, drama,
and even humor of phenomena of that occur in the flash of a microsecond; They enter the microscopic
world that was once reserved only for scientists, but that Mysteries of the Unseen World.

Film przenosi widza do ukrytego świata tajemnic ukazując zjawiska, których nie można dostrzec
gołym okiem. Widzowie doświadczają wydarzeń, które rozwijają się zbyt wolno dla ludzkiej percepcji;
"Widzą" piękno, dramat, a nawet humor zjawisk, które występują w błysku mikrosekundy.

Forest Whitaker (Narrator)

Mysteries Of The Unseen World 3D (2013)-*censored*.mkv
Format : Matroska
Format version : Version 4 / Version 2
File size : 5.14 GiB
Duration : 39mn 7s
Overall bit rate : 18.8 Mbps
Movie name : Mysteries of the Unseen World 3D (2013)-*censored*
Encoded date : UTC 2016-06-04 18:30:05
Writing application : mkvmerge v8.1.0 ('Psychedelic Postcard') 64bit
Writing library : libebml v1.3.1 + libmatroska v1.4.2

Video
ID : 1
Format : AVC
Format/INFO : Advanced Video Codec
Format profile : High@L4.1
Format settings, CABAC : Yes
Format settings, ReFrames : 4 frames
Codec ID : V_MPEG4/ISO/AVC
Duration : 39mn 7s
Bit rate : 14.2 Mbps
Width : 1 920 pixels
Height : 1 080 pixels
Display aspect ratio : 16:9
Frame rate mode : Constant
Frame rate : 23.976 (24000/1001) fps
Color space : YUV
Chroma subsampling : 4:2:0
Bit depth : 8 bits
Scan type : Progressive
Bits/(Pixel*Frame) : 0.285
Stream size : 3.88 GiB (75%)
Title : Mysteries of the Unseen World 3D (2013)-*censored*
Writing library : x264 core 146 r2538 121396c
Default : Yes
Forced : No

Audio #1
ID : 2
Format : AC-3
Format/INFO : Audio Coding 3
Mode extension : CM (complete main)
Format settings, Endianness : Big
Codec ID : A_AC3
Duration : 39mn 7s
Bit rate mode : Constant
Bit rate : 640 Kbps
Channel(s) : 6 channels
Channel positions : Front: L C R, Side: L R, LFE
Sampling rate : 48.0 KHz
Frame rate : 31.250 fps (1536 spf)
Compression mode : Lossy
Stream size : 179 MiB (3%)
Title : Mysteries of the Unseen World 3D (2013)-*censored*_AC3
Language : English
Default : No
Forced : No

Audio #2
ID : 3
Format : DTS
Format/INFO : Digital Theater Systems
Mode : 16
Format settings, Endianness : Big
Codec ID : A_DTS
Duration : 39mn 7s
Bit rate mode : Constant
Bit rate : 3 968 Kbps
Channel(s) : 6 channels
Channel positions : Front: L C R, Side: L R, LFE
Sampling rate : 48.0 KHz
Frame rate : 46.875 fps (1024 spf)
Bit depth : 16 bits
Compression mode : Lossy
Stream size : 1.08 GiB (21%)
Title : Mysteries of the Unseen World 3D (2013)-*censored*_DTS
Language : English
Default : Yes
Forced : No

Text #1
ID : 4
Format : VobSub
Muxing mode : zlib
Codec ID : S_VOBSUB
Codec ID/INFO : Picture based subtitle format used on DVDs
Duration : 35mn 59s
Bit rate : 9 225 bps
Count of elements : 370
Stream size : 2.37 MiB (0%)
Title : Mysteries of the Unseen World 3D (2013)-*censored*
Language : Polish
Default : Yes
Forced : No

Text #2
ID : 5
Format : VobSub
Muxing mode : zlib
Codec ID : S_VOBSUB
Codec ID/INFO : Picture based subtitle format used on DVDs
Duration : 35mn 49s
Bit rate : 8 037 bps
Count of elements : 365
Stream size : 2.06 MiB (0%)
Title : Mysteries of the Unseen World 3D (2013)-*censored*
Language : English
Default : No
Forced : No

Text #3
ID : 6
Format : UTF-8
Codec ID : S_TEXT/UTF8
Codec ID/INFO : UTF-8 Plain Text
Duration : 35mn 59s
Bit rate : 51 bps
Count of elements : 370
Stream size : 13.7 KiB (0%)
Title : Mysteries of the Unseen World 3D (2013)-*censored*
Language : Polish
Default : No
Forced : No

Text #4
ID : 7
Format : UTF-8
Codec ID : S_TEXT/UTF8
Codec ID/INFO : UTF-8 Plain Text
Duration : 35mn 49s
Bit rate : 47 bps
Count of elements : 365
Stream size : 12.6 KiB (0%)
Title : Mysteries of the Unseen World 3D (2013)-*censored*
Language : English
Default : No
Forced : No

Menu
00:00:00.000 : :1
00:04:17.090 : :2. Invisible Light
00:08:34.514 : :3. Too Slow
00:15:07.907 : :4. Too Fast
00:21:35.294 : :5. Too Small
00:29:46.910 : :6. NanoWorld
00:34:17.597 : :7
00:36:02.160 : :8. Credits
Szczegoly torrenta
Info Hash
1406dcaa5493db92cc7b891c31b6c84a6cc7cb0d
Tracker
http://tracker.aledarmowe-torrenty.com.pl:2710/announce [EXTERNAL]
Uaktualnienie
26/07/2017 12:48:05 (Jezeli nie widac seeda kliknij na [uaktualnij] by odswiezyc statystyki).
Pokaz/Ukryj Pliki:
10 pliki
Komentarze


Brak komentarzy...


Wstecz