Witamy Guest (Zaloguj) Strona Główna Kontakt Aktywacja/Wsparcie Regulamin
User: Hasło:
Stwórz konto Odzyskiwanie hasła

Kategorie
Filmy :
 » DVD-R1327  
 » VCD/SVCD4  
 » BluRay/x2645088  
 » DivX/XviD59813  
 » Filmy ENG528  
 » RMVB1784  
 » HD1  
 » 3D16  
Seriale :
 » Seriale Polskie2712  
 » Seriale Zagraniczne15354  
Dla Dzieci :
 » Bajki Pl/Eng462  
Anime :
 » Anime Pl5  
 » Anime104  
Muzyka :
 » Muzyka Polska/Zagraniczna10110  
 » Soundtracki42  
 » Teledyski/Koncerty675  
Gry :
 » Gry PC9784  
 » Gry PS2/PS3/PSP618  
 » Gry Xbox758  
 » Gry - Inne Konsole42  
GSM/PDA :
 » Tapety GSM/PDA6  
 » Programy GSM/PDA275  
 » Filmy GSM/PDA2  
 » Dzwonki GSM/PDA17  
 » Gry GSM/PDA76  
Ksiazki/Czasopisma :
 » E-Booki8879  
 » Audio-Booki541  
 » Czasopisma633  
 » Komiksy723  
Programy :
 » Windows3950  
 » Linux109  
 » Macintosh19  
Inne :
 » Tapety337  
 » Śmieszne15  
 » Sport408  
 » Pozostale102  
Erotyka :
 » Czasopisma28  
 » Zdjęcia 951  
 » Filmy63332  
 » Gry 15  
 » Hentai+180  

Szczęki 3 3D Jaws 3 D *1983* [mini HD 1080p 3D Half Over Under DualAudio AC3 BluRay x264 SONDA] [Lektor i Napisy PL]

Kategoria: 3D
Wystawil: 
Data: 10/07/2016
Rozmiar: 3.97 GB
Seedow: 0
Leecherow: 0

Uaktualnij


Pobierz Torrent
Film w wersji 3D Over-Under.
Do odtworzenia filmu WYMAGANY odpowiedni sprzęt (TV 3D)
=========================================

Kopia mini-HD 1080p = 3,96 GB

gatunek: Thriller
produkcja: USA
premiera: 22 lipca 1983 (świat)
reżyseria: Joe Alves
scenariusz: Peter Benchley,Richard Matheson,Carl Gottlieb

http://imdb.com/title/tt0085750/

OBSADA:
Dennis Quaid ... Mike Brody
Bess Armstrong ... Dr Kathryn "Kay" Morgan
Simon MacCorkindale ... Philip FitzRoyce
Louis Gossett Jr. ... Calvin Bouchard
John Putch ... Sean Brody
Lea Thompson ... Kelly Ann Bukowski
P.H. Moriarty ... Jack Tate

OPIS
Mike Brody, syn Szeryfa Brody'ego, pracuje w parku morskim na Florydzie. Przetrzymywane są tam różne zwierzęta morskie, w tym rekiny, na których biolodzy prowadzą badania. Najnowszym nabytkiem parku jest młody biały rekin. Nikt jednak nie wie, że poza nim w parku znajduje się także jego olbrzymia mamusia. Kiedy fakt ten wychodzi na jaw, jest już za późno... Ciekawostką jest to, że film ten był przystosowany także do wyświetlania 3D (trójwymiarowego).

Storyline:
Several years after Amity's former Police Chief Martin Brody electrocuted the shark at Cable Junction, his sons, Mike & Sean, are now working in different roles at Sea World Orlando. Mike is working as a park engineer and considering marriage to his girlfriend, killer whale biologist Kathryn Morgan. Sean is also involved with 1 of the park's water skiers, Kelly Ann Bukowski. Sea World is about to open a massive 'Undersea Kingdom' which will bring visitors closer to marine life than ever before. The park is accessible from the ocean by a series of gates, one of which malfunctions. A young Great White Shark swims through the gate, and when a maintenance diver heads down to fix the gate he does not return. The young Great White is captured & placed in a tank but soon dies despite Kathryn's best efforts to save it. More alarming though, is the young shark's massive, 35 foot mother which has followed the baby shark into the lagoon and killed the maintenance diver, whose body is recovered.

DANE TECH:

General
Format : Matroska
Format version : Version 2
File size : 3.97 GiB
Duration : 1h 38mn
Overall bit rate : 5 753 Kbps
Movie name : Jaws.3.3D.1983.PL.HOU.BDRip.1080p.Sonda [*censored*]
Encoded date : UTC 2016-07-08 13:36:49
Writing application : mkvmerge v5.7.0 ('The Whirlwind') built on Jul 8 2012 20:08:51
Writing library : libebml v1.2.3 + libmatroska v1.3.0

Video
ID : 1
Format : AVC
Format/INFO : Advanced Video Codec
Format profile : High@L4.1
Format settings, CABAC : Yes
Format settings, ReFrames : 4 frames
Codec ID : V_MPEG4/ISO/AVC
Duration : 1h 38mn
Bit rate : 5 100 Kbps
Width : 1 920 pixels
Height : 1 080 pixels
Display aspect ratio : 16:9 (2.39:1)
Frame rate mode : Constant
Frame rate : 23.976 fps
Color space : YUV
Chroma subsampling : 4:2:0
Bit depth : 8 bits
Scan type : Progressive
Bits/(Pixel*Frame) : 0.103
Stream size : 3.45 GiB (87%)
Title : Rip by Sonda
Writing library : x264
Encoding settings : cabac=1 / ref=4 / deblock=1:-1:-1 / rc=2pass
Default : Yes
Forced : No

Audio #1
ID : 2
Format : AC-3
Format/INFO : Audio Coding 3
Mode extension : CM (complete main)
Format settings, Endianness : Big
Codec ID : A_AC3
Duration : 1h 38mn
Bit rate mode : Constant
Bit rate : 448 Kbps
Channel count : 6 channels
Channel positions : Front: L C R, Side: L R, LFE
Sampling rate : 48.0 KHz
Bit depth : 16 bits
Compression mode : Lossy
Stream size : 316 MiB (8%)
Title : AC3 5.1 Lektor PL
Language : Polish
Default : Yes
Forced : Yes

Audio #2
ID : 3
Format : AC-3
Format/INFO : Audio Coding 3
Mode extension : CM (complete main)
Format settings, Endianness : Big
Codec ID : A_AC3
Duration : 1h 38mn
Bit rate mode : Constant
Bit rate : 192 Kbps
Channel count : 2 channels
Channel positions : Front: L R
Sampling rate : 48.0 KHz
Bit depth : 16 bits
Compression mode : Lossy
Stream size : 136 MiB (3%)
Title : AC3 2.0 ENG
Language : English
Default : No
Forced : No

Text #1
ID : 4
Format : UTF-8
Codec ID : S_TEXT/UTF8
Codec ID/INFO : UTF-8 Plain Text
Title : Napisy PL 2D
Language : Polish
Default : No
Forced : No

Text #2
ID : 5
Format : UTF-8
Codec ID : S_TEXT/UTF8
Codec ID/INFO : UTF-8 Plain Text
Title : Napisy ENG 2D
Language : English
Default : No
Forced : No

Text #3
ID : 6
Format : PGS
Muxing mode : zlib
Codec ID : S_HDMV/PGS
Codec ID/INFO : The same subtitle format used on BDs/HD-DVDs
Title : Napisy PL 3D
Language : Polish
Default : No
Forced : No

Source:
A/V-Jaws.3-D.1983.1080p.3D.BluRay.AVC.DTS-HD.MA.2.0-FGT
Lektor PL - DVDRip-GR4PE
Thanks - Sonda
Szczegoly torrenta
Info Hash
10d0110abfb6e1f932d46a99c3dfa04122b53102
Tracker
http://tracker.aledarmowe-torrenty.com.pl:2710/announce [EXTERNAL]
Uaktualnienie
27/04/2017 14:47:51 (Jezeli nie widac seeda kliknij na [uaktualnij] by odswiezyc statystyki).
Pokaz/Ukryj Pliki:
5 pliki
Komentarze


Brak komentarzy...


Wstecz