Witamy Guest (Zaloguj) Strona Główna Kontakt Aktywacja/Wsparcie Regulamin
User: Hasło:
Stwórz konto Odzyskiwanie hasła

Kategorie
Filmy :
 » DVD-R1940  
 » VCD/SVCD76  
 » BluRay/x2645479  
 » DivX/XviD65532  
 » Filmy ENG526  
 » RMVB6148  
 » HD1  
 » 3D16  
Seriale :
 » Seriale Polskie2822  
 » Seriale Zagraniczne17766  
Dla Dzieci :
 » Bajki Pl/Eng1208  
Anime :
 » Anime Pl139  
 » Anime1265  
Muzyka :
 » Muzyka Polska/Zagraniczna17657  
 » Soundtracki299  
 » Teledyski/Koncerty2004  
Gry :
 » Gry PC11677  
 » Gry PS2/PS3/PSP1158  
 » Gry Xbox1156  
 » Gry - Inne Konsole456  
GSM/PDA :
 » Tapety GSM/PDA103  
 » Programy GSM/PDA396  
 » Filmy GSM/PDA122  
 » Dzwonki GSM/PDA110  
 » Gry GSM/PDA240  
Ksiazki/Czasopisma :
 » E-Booki9631  
 » Audio-Booki875  
 » Czasopisma1060  
 » Komiksy844  
Programy :
 » Windows11395  
 » Linux475  
 » Macintosh97  
Inne :
 » Tapety2394  
 » Śmieszne80  
 » Sport1185  
 » Pozostale246  
Erotyka :
 » Czasopisma125  
 » Zdjęcia 1533  
 » Filmy56113  
 » Gry 68  
 » Hentai+1853  

Batman v Superman: Świt sprawiedliwości 3D Batman v Superman: Dawn of Justice *2016* [Theatrical Cut] [mini HD 1080p 3D Half Over Under AC3 BluRay x264 SONDA] [Dubbing i Napisy PL]

Kategoria: 3D
Wystawil: 
Data: 10/07/2016
Rozmiar: 3.95 GB
Seedow: 0
Leecherow: 0

Uaktualnij


Pobierz Torrent
http://i.imgur.com/QJNOe6u.jpg

Film w wersji 3D Over-Under.
Do odtworzenia filmu WYMAGANY odpowiedni sprzęt (TV 3D)
=========================================

Kopia mini-HD 1080p = 3,95 GB

gatunek: Akcja,Sci-Fi
produkcja: USA
premiera: 1 kwietnia 2016 (Polska) 19 marca 2016 (świat)
reżyseria: Zack Snyder
scenariusz: Chris Terrio,David S. Goyer

http://www.imdb.com/title/tt2975590/

Obsada:

Jacek Rozenek ... Bruce Wayne / Batman (polski dubbing)
Grzegorz Kwiecień ... Clark Kent / Superman (polski dubbing)
Krzysztof Szczepaniak ... Lex Luthor (polski dubbing)
Bożena Furczyk ... Lois Lane (polski dubbing)
Anna Sroka ... Diana Prince / Wonder Woman (polski dubbing)
Andrzej Chudy ... Alfred Pennyworth (polski dubbing)
Ewa Serwa ... Senator June Finch (polski dubbing)

Opis:

W obawie przed poczynaniami nieposkromionego superbohatera o boskich rysach i zdolnościach, najznamienitszy obywatel Gotham City, a zarazem zaciekły strażnik porządku, staje do walki z otaczanym czcią współczesnym wybawcą Metropolis, podczas gdy świat usiłuje ustalić, jakiego bohatera naprawdę potrzebuje. Wobec konfliktu, który rozgorzał między Batmanem i Supermanem, na horyzoncie szybko pojawia się nowy wróg, stawiając ludzkość w obliczu śmiertelnego niebezpieczeństwa, z jakim jeszcze nigdy nie musiała się mierzyć.

Storyline:

The general public is concerned over having Superman on their planet and letting the "Dark Knight" - Batman - pursue the streets of Gotham. While this is happening, a power-phobic Batman tries to attack Superman.,Meanwhile Superman tries to settle on a decision, and Lex Luthor, the criminal mastermind and millionaire, tries to use his own advantages to fight the "Man of Steel".

Screenshot:

http://i.imgur.com/mDWxP5n.jpg
http://i.imgur.com/TwXZeeP.jpg
http://i.imgur.com/4Efveku.jpg
http://i.imgur.com/5GA8MRB.jpg


Dane techniczne:

General
Format : Matroska
Format version : Version 2
File size : 3.95 GiB
Duration : 2h 31mn
Overall bit rate : 3 725 Kbps
Movie name : Batman.v.Superman.Dawn.Of.Justice.3D.TC.2016.HOU.BDRip.1080p.Sonda [*censored*]
Encoded date : UTC 2016-07-07 17:51:53
Writing application : mkvmerge v5.7.0 ('The Whirlwind') built on Jul 8 2012 20:08:51
Writing library : libebml v1.2.3 + libmatroska v1.3.0

Video
ID : 1
Format : AVC
Format/Info : Advanced Video Codec
Format profile : High@L4.1
Format settings, CABAC : Yes
Format settings, ReFrames : 4 frames
Codec ID : V_MPEG4/ISO/AVC
Duration : 2h 31mn
Bit rate : 3 200 Kbps
Width : 1 920 pixels
Height : 1 080 pixels
Display aspect ratio : 16:9 (2.39:1)
Frame rate mode : Constant
Frame rate : 23.976 fps
Color space : YUV
Chroma subsampling : 4:2:0
Bit depth : 8 bits
Scan type : Progressive
Bits/(Pixel*Frame) : 0.064
Stream size : 3.33 GiB (84%)
Title : Rip by Sonda
Writing library : x264 core 148 r2638 7599210
Encoding settings : cabac=1 / ref=4 / deblock=1:-1:-1 / rc=2pass
Default : Yes
Forced : No

Audio #1
ID : 2
Format : AC-3
Format/Info : Audio Coding 3
Mode extension : CM (complete main)
Format settings, Endianness : Big
Codec ID : A_AC3
Duration : 2h 31mn
Bit rate mode : Constant
Bit rate : 192 Kbps
Channel count : 2 channels
Channel positions : Front: L R
Sampling rate : 48.0 KHz
Bit depth : 16 bits
Compression mode : Lossy
Stream size : 208 MiB (5%)
Title : AC3 2.0 Dubbing PL
Language : Polish
Default : Yes
Forced : Yes

Audio #2
ID : 3
Format : AC-3
Format/Info : Audio Coding 3
Mode extension : CM (complete main)
Format settings, Endianness : Big
Codec ID : A_AC3
Duration : 2h 31mn
Bit rate mode : Constant
Bit rate : 320 Kbps
Channel count : 6 channels
Channel positions : Front: L C R, Side: L R, LFE
Sampling rate : 48.0 KHz
Bit depth : 16 bits
Compression mode : Lossy
Stream size : 347 MiB (9%)
Title : AC3 5.1 ENG
Language : English
Default : No
Forced : No

Text #1
ID : 4
Format : UTF-8
Codec ID : S_TEXT/UTF8
Codec ID/Info : UTF-8 Plain Text
Title : Napisy PL 2D
Language : Polish
Default : No
Forced : No

Text #2
ID : 5
Format : UTF-8
Codec ID : S_TEXT/UTF8
Codec ID/Info : UTF-8 Plain Text
Title : Napisy ENG 2D
Language : English
Default : No
Forced : No

Text #3
ID : 6
Format : PGS
Muxing mode : zlib
Codec ID : S_HDMV/PGS
Codec ID/Info : The same subtitle format used on BDs/HD-DVDs
Title : Napisy PL 3D
Language : Polish
Default : No
Forced : No

Source:
A/V-Batman v Superman: Dawn of Justice (2016) [Theatrical Cut] 1080p [2D/3D] BD-Remux-HDCLUB
Dubbing PL - KiT
Thanks - Sonda
Szczegoly torrenta
Info Hash
0a287897f7d295ece19c76f6d0cb39ab14135889
Tracker
http://tracker.aledarmowe-torrenty.com.pl:2710/announce [EXTERNAL]
Uaktualnienie
28/02/2017 08:31:45 (Jezeli nie widac seeda kliknij na [uaktualnij] by odswiezyc statystyki).
Pokaz/Ukryj Pliki:
5 pliki
Komentarze


Brak komentarzy...


Wstecz