Witamy Guest (Zaloguj) Strona Główna Kontakt Aktywacja/Wsparcie Regulamin
User: Hasło:
Stwórz konto Odzyskiwanie hasła

Kategorie
Filmy :
 » DVD-R1414  
 » VCD/SVCD4  
 » BluRay/x2645831  
 » DivX/XviD63981  
 » Filmy ENG555  
 » RMVB1784  
 » HD1  
 » 3D16  
Seriale :
 » Seriale Polskie2932  
 » Seriale Zagraniczne17608  
Dla Dzieci :
 » Bajki Pl/Eng502  
Anime :
 » Anime Pl5  
 » Anime104  
Muzyka :
 » Muzyka Polska/Zagraniczna10335  
 » Soundtracki42  
 » Teledyski/Koncerty688  
Gry :
 » Gry PC11043  
 » Gry PS2/PS3/PSP621  
 » Gry Xbox758  
 » Gry - Inne Konsole42  
GSM/PDA :
 » Tapety GSM/PDA6  
 » Programy GSM/PDA296  
 » Filmy GSM/PDA2  
 » Dzwonki GSM/PDA17  
 » Gry GSM/PDA77  
Ksiazki/Czasopisma :
 » E-Booki9130  
 » Audio-Booki605  
 » Czasopisma633  
 » Komiksy782  
Programy :
 » Windows4218  
 » Linux109  
 » Macintosh19  
Inne :
 » Tapety339  
 » Śmieszne17  
 » Sport511  
 » Pozostale102  
Erotyka :
 » Czasopisma28  
 » Zdjęcia 963  
 » Filmy74288  
 » Gry 15  
 » Hentai+181  

Bogowie Egiptu 3D Gods of Egypt *2016* [PLSUBBED 1080p 3D Half Over Under DTS 5 1 AC3 BluRay x264 SONDA] [ENG]

Kategoria: BluRay/x264
Wystawil: 
Data: 01/07/2016
Rozmiar: 12.99 GB
Seedow: 0
Leecherow: 0

Uaktualnij


Pobierz Torrent
Film w wersji 3D Over-Under.
Do odtworzenia filmu WYMAGANY odpowiedni sprzęt (TV 3D)
===========================================
UWAGA: Napisy na stałe wtopione w film. Zapraszam Wszystkich chętnych !!!!!!!
=====================================================

gatunek: Fantasy,Przygodowy
produkcja: USA
premiera: 26 lutego 2016 (Polska) 24 lutego 2016 (świat)
reżyseria: Alex Proyas
scenariusz: Matt Sazama,Burk Sharpless

http://imdb.com/title/tt2404233/

OBSADA:

Nikolaj Coster-Waldau ... Horus
Brenton Thwaites ... Bek
Gerard Butler ... Set
Chadwick Boseman ... Thoth
Elodie Yung ... Hathor
Courtney Eaton ... Zaya
Geoffrey Rush ... Ra
Rufus Sewell ... Urshu

OPIS

Set, bezwzględny bóg ciemności, siłą i podstępem przejmuje egipski tron. Faraon ginie, kapłani są bezsilni, a zwykli ludzie stają się niewolnikami. Tylko garstka buntowników stawia czoła uzurpatorowi, by ocalić imperium. Na ich czele staje bohaterski śmiertelnik Bek, który z pomocą potężnego i miłosiernego boga Horusa wyrusza w zaświaty i do samych niebios, by tam odnaleźć i pokonać Seta i jego hordy. Tak rozpoczyna się pełna niezwykłych przygód, magii i poświęceń krucjata śmiertelnika i boga w obronie naszego świata.

Storyline:

Set, the merciless god of darkness, has taken over the throne of Egypt and plunged the once peaceful and prosperous empire into chaos and conflict. Few dare to rebel against him. A young thief, whose love was taken captive by the god, seeks to dethrone and defeat Set with the aid of the powerful god Horus.

DANE TECH:

General
Format : Matroska
Format version : Version 2
File size : 13.0 GiB
Duration : 2h 7mn
Overall bit rate : 14.6 Mbps
Movie name : Gods.of.Egypt.3D.2016.PLSUBBED.HOU.BDRip.1080p.Sonda
Encoded date : UTC 2016-05-21 11:28:46
Writing application : mkvmerge v5.7.0 ('The Whirlwind') built on Jul 8 2012 20:08:51
Writing library : libebml v1.2.3 + libmatroska v1.3.0

Video
ID : 1
Format : AVC
Format/INFO : Advanced Video Codec
Format profile : High@L4.1
Format settings, CABAC : Yes
Format settings, ReFrames : 4 frames
Codec ID : V_MPEG4/ISO/AVC
Duration : 2h 7mn
Bit rate : 12.5 Mbps
Width : 1 920 pixels
Height : 1 080 pixels
Display aspect ratio : 16:9 (2.39:1)
Frame rate mode : Constant
Frame rate : 23.976 fps
Color space : YUV
Chroma subsampling : 4:2:0
Bit depth : 8 bits
Scan type : Progressive
Bits/(Pixel*Frame) : 0.251
Stream size : 10.8 GiB (83%)
Title : PLSUBBED Rip by Sonda
Writing library : x264
Encoding settings : cabac=1 / ref=4 / deblock=1:-1:-1 / rc=2pass
Default : Yes
Forced : No

Audio #1
ID : 2
Format : AC-3
Format/INFO : Audio Coding 3
Mode extension : CM (complete main)
Format settings, Endianness : Big
Codec ID : A_AC3
Duration : 2h 7mn
Bit rate mode : Constant
Bit rate : 640 Kbps
Channel count : 6 channels
Channel positions : Front: L C R, Side: L R, LFE
Sampling rate : 48.0 KHz
Bit depth : 16 bits
Compression mode : Lossy
Stream size : 581 MiB (4%)
Title : AC3 5.1
Language : English
Default : Yes
Forced : Yes

Audio #2
ID : 3
Format : DTS
Format/INFO : Digital Theater Systems
Mode : 16
Format settings, Endianness : Big
Codec ID : A_DTS
Duration : 2h 7mn
Bit rate mode : Constant
Bit rate : 1 509 Kbps
Channel count : 6 channels
Channel positions : Front: L C R, Side: L R, LFE
Sampling rate : 48.0 KHz
Bit depth : 24 bits
Compression mode : Lossy
Stream size : 1.34 GiB (10%)
Title : DTS 5.1
Language : English
Default : No
Forced : No

Source:
A/V- Gods of Egypt (2016) 1080p [2D/3D] BD-Remux -HDCLUB
Thanks - Sonda
Szczegoly torrenta
Info Hash
087da1f830459d2f4afb1555df018782e9ac92ae
Tracker
http://tracker.aledarmowe-torrenty.com.pl:2710/announce [EXTERNAL]
Uaktualnienie
28/07/2017 12:48:23 (Jezeli nie widac seeda kliknij na [uaktualnij] by odswiezyc statystyki).
Pokaz/Ukryj Pliki:
4 pliki
Komentarze


Brak komentarzy...


Wstecz